A.street.cat.named.bob.2016.hdrip.hc.700Mb.x264 Cat[Prime]

A.Street.Cat.Named.Bob.2016.HDrip.HC.700MB.x264-CAT[PRiME] Video / BD / HD / X264

  • 707 MB
  • 2 S
  • 1 L
  • Jan 2017

Download fast (14 free days): Download torrent Magnet link

Description(s):

Ahashare

A.Street.Cat.Named.Bob.2016.HDrip.HC.700MB.x264-CAT
ImDb: http://www.imdb.com/title/tt3606888
Complete name : A.Street.Cat.Named.Bob.2016.HDrip.HC.700MB.x264-CAT.mp4
Format : MPEG-4
Format profile : Base Media
Codec ID : isom (isom/avc1)
File size : 697 MiB
Duration : 1 h 37 min
Overall bit rate mode : Variable
Overall bit rate : 996 kb/s
Encoded date : UTC 2017-01-09 22:29:57
Tagged date : UTC 2017-01-09 22:29:57
Writing application : My MP4Box GUI 0.6.0.6
Video
ID : 1
Format : AVC
Format/Info : Advanced Video Codec
Format profile : High@L3
Format settings, CABAC : Yes
Format settings, ReFrames : 8 frames
Codec ID : avc1
Codec ID/Info : Advanced Video Coding
Duration : 1 h 37 min
Bit rate : 897 kb/s
Maximum bit rate : 2 815 kb/s
Width : 640 pixels
Height : 336 pixels
Display aspect ratio : 1.905
Frame rate mode : Constant
Frame rate : 25.000 FPS
Color space : YUV
Chroma subsampling : 4:2:0
Bit depth : 8 bits
Scan type : Progressive
Bits/(Pixel*Frame) : 0.167
Stream size : 627 MiB (90%)
Title : A.Street.Cat.Named.Bob.2016.HDrip.HC.700MB.x264-CAT-muxed_track1_und.h264
Writing library : x264 core 148 r2705 3f5ed56
Encoding settings : cabac=1 / ref=8 / deblock=1:0:0 / analyse=0x3:0x113 / me=umh / subme=9 / psy=1 / psy_rd=1.00:0.00 / mixed_ref=1 / me_range=24 / chroma_me=1 / trellis=1 / 8x8dct=1 / cqm=0 / deadzone=21,11 / fast_pskip=1 / chroma_qp_offset=-2 / threads=6 / lookahead_threads=1 / sliced_threads=0 / nr=0 / decimate=1 / interlaced=0 / bluray_compat=0 / constrained_intra=0 / bframes=5 / b_pyramid=2 / b_adapt=2 / b_bias=0 / direct=3 / weightb=1 / open_gop=0 / weightp=2 / keyint=250 / keyint_min=25 / scenecut=40 / intra_refresh=0 / rc_lookahead=60 / rc=2pass / mbtree=1 / bitrate=897 / ratetol=1.0 / qcomp=0.60 / qpmin=0 / qpmax=69 / qpstep=4 / cplxblur=20.0 / qblur=0.5 / ip_ratio=1.40 / aq=2:1.00
Encoded date : UTC 2017-01-09 22:29:57
Tagged date : UTC 2017-01-09 22:30:10
Audio
ID : 2
Format : AAC
Format/Info : Advanced Audio Codec
Format profile : LC
Codec ID : 40
Duration : 1 h 37 min
Bit rate mode : Variable
Bit rate : 96.0 kb/s
Maximum bit rate : 122 kb/s
Channel(s) : 2 channels
Channel positions : Front: L R
Sampling rate : 48.0 kHz
Frame rate : 46.875 FPS (1024 spf)
Compression mode : Lossy
Stream size : 67.2 MiB (10%)
Title : A.Street.Cat.Named.Bob.2016.HDrip.HC.700MB.x264-CAT-muxed_track2_cat.aac
Encoded date : UTC 2017-01-09 22:30:06
Tagged date : UTC 2017-01-09 22:30:10
Click Image To View Full Size
Click To View Screenshot
Click To View Screenshot
Click To View Screenshot

Torrentbit

A.Street.Cat.Named.Bob.2016.HDrip.HC.700MB.x264-CATImDb: http://www.imdb.com/title/tt3606888Complete name : A.Street.Cat.Named.Bob.2016.HDrip.HC.700MB.x264-CAT.mp4Format : MPEG-4Format profile : Base MediaCodec ID : isom (isom/avc1)File size : 697 MiBDuration : 1 h 37 minOverall bit rate mode : VariableOverall bit rate : 996 kb/sEncoded date : UTC 2017-01-09 22:29:57Tagged date : UTC 2017-01-09 22:29:57Writing application : My MP4Box GUI 0.6.0.6 VideoID : 1Format : AVCFormat/Info : Advanced Video CodecFormat profile : /* */Format settings, CABAC : YesFormat settings, ReFrames : 8 framesCodec ID : avc1Codec ID/Info : Advanced Video CodingDuration : 1 h 37 minBit rate : 897 kb/sMaximum bit rate : 2 815 kb/sWidth : 640 pixelsHeight : 336 pixelsDisplay aspect ratio : 1.905Frame rate mode : ConstantFrame rate : 25.000 FPSColor space : YUVChroma subsampling : 4:2:0Bit depth : 8 bitsScan type : ProgressiveBits/(Pixel*Frame) : 0.167Stream size : 627 MiB (90%)Title : A.Street.Cat.Named.Bob.2016.HDrip.HC.700MB.x264-CAT-muxed_track1_und.h264Writing library : x264 core 148 r2705 3f5ed56Encoding settings : cabac=1 / ref=8 / deblock=1:0:0 / analyse=0x3:0x113 / me=umh / subme=9 / psy=1 / psy_rd=1.00:0.00 / mixed_ref=1 / me_range=24 / chroma_me=1 / trellis=1 / 8x8dct=1 / cqm=0 / deadzone=21,11 / fast_pskip=1 / chroma_qp_offset=-2 / threads=6 / lookahead_threads=1 / sliced_threads=0 / nr=0 / decimate=1 / interlaced=0 / bluray_compat=0 / constrained_intra=0 / bframes=5 / b_pyramid=2 / b_adapt=2 / b_bias=0 / direct=3 / weightb=1 / open_gop=0 / weightp=2 / keyint=250 / keyint_min=25 / scenecut=40 / intra_refresh=0 / rc_lookahead=60 / rc=2pass / mbtree=1 / bitrate=897 / ratetol=1.0 / qcomp=0.60 / qpmin=0 / qpmax=69 / qpstep=4 / cplxblur=20.0 / qblur=0.5 / ip_ratio=1.40 / aq=2:1.00Encoded date : UTC 2017-01-09 22:29:57Tagged date : UTC 2017-01-09 22:30:10AudioID : 2Format : AACFormat/Info : Advanced Audio CodecFormat profile : LCCodec ID : 40Duration : 1 h 37 minBit rate mode : VariableBit rate : 96.0 kb/sMaximum bit rate : 122 kb/sChannel(s) : 2 channelsChannel positions : Front: L RSampling rate : 48.0 kHzFrame rate : 46.875 FPS (1024 spf)Compression mode : LossyStream size : 67.2 MiB (10%)Title : A.Street.Cat.Named.Bob.2016.HDrip.HC.700MB.x264-CAT-muxed_track2_cat.aacEncoded date : UTC 2017-01-09 22:30:06Tagged date : UTC 2017-01-09 22:30:10Click Image To View Full SizeClick To View Screenshot Click To View Screenshot Click To View Screenshot

GlodlsTo

A.Street.Cat.Named.Bob.2016.HDrip.HC.700MB.x264-CAT
ImDb: http://www.imdb.com/title/tt3606888
Complete name : A.Street.Cat.Named.Bob.2016.HDrip.HC.700MB.x264-CAT.mp4
Format : MPEG-4
Format profile : Base Media
Codec ID : isom (isom/avc1)
File size : 697 MiB
Duration : 1 h 37 min
Overall bit rate mode : Variable
Overall bit rate : 996 kb/s
Encoded date : UTC 2017-01-09 22:29:57
Tagged date : UTC 2017-01-09 22:29:57
Writing application : My MP4Box GUI 0.6.0.6
Video
ID : 1
Format : AVC
Format/Info : Advanced Video Codec
Format profile : /* */
Format settings, CABAC : Yes
Format settings, ReFrames : 8 frames
Codec ID : avc1
Codec ID/Info : Advanced Video Coding
Duration : 1 h 37 min
Bit rate : 897 kb/s
Maximum bit rate : 2 815 kb/s
Width : 640 pixels
Height : 336 pixels
Display aspect ratio : 1.905
Frame rate mode : Constant
Frame rate : 25.000 FPS
Color space : YUV
Chroma subsampling : 4:2:0
Bit depth : 8 bits
Scan type : Progressive
Bits/(Pixel*Frame) : 0.167
Stream size : 627 MiB (90%)
Title : A.Street.Cat.Named.Bob.2016.HDrip.HC.700MB.x264-CAT-muxed_track1_und.h264
Writing library : x264 core 148 r2705 3f5ed56
Encoding settings : cabac=1 / ref=8 / deblock=1:0:0 / analyse=0x3:0x113 / me=umh / subme=9 / psy=1 / psy_rd=1.00:0.00 / mixed_ref=1 / me_range=24 / chroma_me=1 / trellis=1 / 8x8dct=1 / cqm=0 / deadzone=21,11 / fast_pskip=1 / chroma_qp_offset=-2 / threads=6 / lookahead_threads=1 / sliced_threads=0 / nr=0 / decimate=1 / interlaced=0 / bluray_compat=0 / constrained_intra=0 / bframes=5 / b_pyramid=2 / b_adapt=2 / b_bias=0 / direct=3 / weightb=1 / open_gop=0 / weightp=2 / keyint=250 / keyint_min=25 / scenecut=40 / intra_refresh=0 / rc_lookahead=60 / rc=2pass / mbtree=1 / bitrate=897 / ratetol=1.0 / qcomp=0.60 / qpmin=0 / qpmax=69 / qpstep=4 / cplxblur=20.0 / qblur=0.5 / ip_ratio=1.40 / aq=2:1.00
Encoded date : UTC 2017-01-09 22:29:57
Tagged date : UTC 2017-01-09 22:30:10
Audio
ID : 2
Format : AAC
Format/Info : Advanced Audio Codec
Format profile : LC
Codec ID : 40
Duration : 1 h 37 min
Bit rate mode : Variable
Bit rate : 96.0 kb/s
Maximum bit rate : 122 kb/s
Channel(s) : 2 channels
Channel positions : Front: L R
Sampling rate : 48.0 kHz
Frame rate : 46.875 FPS (1024 spf)
Compression mode : Lossy
Stream size : 67.2 MiB (10%)
Title : A.Street.Cat.Named.Bob.2016.HDrip.HC.700MB.x264-CAT-muxed_track2_cat.aac
Encoded date : UTC 2017-01-09 22:30:06
Tagged date : UTC 2017-01-09 22:30:10
Click Image To View Full Size
Click To View Screenshot
Click To View Screenshot
Click To View Screenshot

Files (9):

  • A.Street.Cat.Named.Bob.2016.HDrip.HC.700MB.x264-CAT.NFO (5 KB)
  • A.Street.Cat.Named.Bob.2016.HDrip.HC.700MB.x264-CAT[PRiME].mp4 (697 MB)
  • CAT.jpg (104 KB)
  • Please Support!! Read More!!!.txt (232 B)
  • Sample / Sample[PRiME].mp4 (9.6 MB)
  • Screenshots.jpg (282 KB)
  • Torrent Downloaded From 1337x.to.txt (69 B)
  • Torrent Downloaded From ExtraTorrent.cc.txt (446 B)
  • Torrent downloaded from AhaShare.com.txt (59 B)

show full list …

collapse the list

Torrof does not host any content on its servers, but allows his users to search existing torrents for "A.Street.Cat.Named.Bob.2016.HDrip.HC.700MB.x264-CAT[PRiME]" and download it for free from most famous Torrent Trackers: #Ahashare, #Torrentbit, #GlodlsTo, #Limetorrents, #Yourbittorrent, #Torrentroom