At.the.end.of.the.tunnel.2016.720P.bluray.x264 Bipolar[Prime]

At.the.End.of.the.Tunnel.2016.720p.BluRay.x264-BiPOLAR[PRiME] Video / BD / HD / X264

  • 4.4 GB
  • 2 S
  • 1 L
  • Jan 2017

Download fast (14 free days): Download torrent Magnet link

Description(s):

Ahashare

At.the.End.of.the.Tunnel.2016.720p.BluRay.x264-BiPOLAR
ImDb: http://www.imdb.com/title/tt5133308
Complete name : at.the.end.of.the.tunnel.2016.720p.bluray.x264-bipolar.mkv
Format : Matroska
Format version : Version 4 / Version 2
File size : 4.37 GiB
Duration : 2 h 0 min
Overall bit rate : 5 197 kb/s
Encoded date : UTC 2017-01-09 21:41:01
Writing application : mkvmerge v8.3.0 ('Over the Horizon') 64bit
Writing library : libebml v1.3.1 + libmatroska v1.4.2
Video
ID : 1
Format : AVC
Format/Info : Advanced Video Codec
Format profile : High@L4.1
Format settings, CABAC : Yes
Format settings, ReFrames : 5 frames
Codec ID : V_MPEG4/ISO/AVC
Duration : 2 h 0 min
Bit rate : 4 557 kb/s
Width : 1 280 pixels
Height : 536 pixels
Display aspect ratio : 2.40:1
Frame rate mode : Constant
Frame rate : 23.976 (24000/1001) FPS
Color space : YUV
Chroma subsampling : 4:2:0
Bit depth : 8 bits
Scan type : Progressive
Bits/(Pixel*Frame) : 0.277
Stream size : 3.83 GiB (88%)
Writing library : x264 core 148 r2705 3f5ed56
Encoding settings : cabac=1 / ref=5 / deblock=1:0:0 / analyse=0x3:0x133 / me=umh / subme=9 / psy=1 / psy_rd=1.00:0.00 / mixed_ref=1 / me_range=16 / chroma_me=1 / trellis=2 / 8x8dct=1 / cqm=0 / deadzone=21,11 / fast_pskip=0 / chroma_qp_offset=-2 / threads=17 / lookahead_threads=1 / sliced_threads=0 / nr=0 / decimate=1 / interlaced=0 / bluray_compat=0 / constrained_intra=0 / bframes=3 / b_pyramid=2 / b_adapt=2 / b_bias=0 / direct=3 / weightb=1 / open_gop=0 / weightp=2 / keyint=250 / keyint_min=23 / scenecut=40 / intra_refresh=0 / rc_lookahead=50 / rc=2pass / mbtree=1 / bitrate=4557 / ratetol=1.0 / qcomp=0.60 / qpmin=0 / qpmax=69 / qpstep=4 / cplxblur=20.0 / qblur=0.5 / ip_ratio=1.40 / aq=1:1.00
Language : English
Default : Yes
Forced : No
Audio
ID : 2
Format : AC-3
Format/Info : Audio Coding 3
Mode extension : CM (complete main)
Format settings, Endianness : Big
Codec ID : A_AC3
Duration : 2 h 0 min
Bit rate mode : Constant
Bit rate : 640 kb/s
Channel(s) : 6 channels
Channel positions : Front: L C R, Side: L R, LFE
Sampling rate : 48.0 kHz
Frame rate : 31.250 FPS (1536 spf)
Compression mode : Lossy
Stream size : 551 MiB (12%)
Language : Spanish
Default : Yes
Forced : No
Text
ID : 3
Format : UTF-8
Codec ID : S_TEXT/UTF8
Codec ID/Info : UTF-8 Plain Text
Duration : 1 h 52 min
Bit rate : 42 b/s
Count of elements : 1183
Stream size : 34.8 KiB (0%)
Title : forced
Language : English
Default : Yes
Forced : Yes
Menu
00:00:00.000 : en:00:00:00.000
00:09:06.296 : en:00:09:06.296
00:17:22.750 : en:00:17:22.750
00:24:26.131 : en:00:24:26.131
00:30:44.843 : en:00:30:44.843
00:39:58.896 : en:00:39:58.896
00:45:13.711 : en:00:45:13.711
00:52:21.930 : en:00:52:21.930
01:04:19.522 : en:01:04:19.522
01:11:23.779 : en:01:11:23.779
01:25:56.902 : en:01:25:56.902
01:34:39.257 : en:01:34:39.257
01:48:56.697 : en:01:48:56.697
01:56:15.886 : en:01:56:15.886
Click Image To View Full Size
Click To View Screenshot
Click To View Screenshot
Click To View Screenshot

Torrentbit

At.the.End.of.the.Tunnel.2016.720p.BluRay.x264-BiPOLARImDb: http://www.imdb.com/title/tt5133308Complete name : at.the.end.of.the.tunnel.2016.720p.bluray.x264-bipolar.mkvFormat : MatroskaFormat version : Version 4 / Version 2File size : 4.37 GiBDuration : 2 h 0 minOverall bit rate : 5 197 kb/sEncoded date : UTC 2017-01-09 21:41:01Writing application : mkvmerge v8.3.0 ('Over the Horizon') 64bitWriting library : libebml v1.3.1 + libmatroska v1.4.2VideoID : 1Format : AVCFormat/Info : Advanced Video CodecFormat profile : /* */Format settings, CABAC : YesFormat settings, ReFrames : 5 framesCodec ID : V_MPEG4/ISO/AVCDuration : 2 h 0 minBit rate : 4 557 kb/sWidth : 1 280 pixelsHeight : 536 pixelsDisplay aspect ratio : 2.40:1Frame rate mode : ConstantFrame rate : 23.976 (24000/1001) FPSColor space : YUVChroma subsampling : 4:2:0Bit depth : 8 bitsScan type : ProgressiveBits/(Pixel*Frame) : 0.277Stream size : 3.83 GiB (88%)Writing library : x264 core 148 r2705 3f5ed56Encoding settings : cabac=1 / ref=5 / deblock=1:0:0 / analyse=0x3:0x133 / me=umh / subme=9 / psy=1 / psy_rd=1.00:0.00 / mixed_ref=1 / me_range=16 / chroma_me=1 / trellis=2 / 8x8dct=1 / cqm=0 / deadzone=21,11 / fast_pskip=0 / chroma_qp_offset=-2 / threads=17 / lookahead_threads=1 / sliced_threads=0 / nr=0 / decimate=1 / interlaced=0 / bluray_compat=0 / constrained_intra=0 / bframes=3 / b_pyramid=2 / b_adapt=2 / b_bias=0 / direct=3 / weightb=1 / open_gop=0 / weightp=2 / keyint=250 / keyint_min=23 / scenecut=40 / intra_refresh=0 / rc_lookahead=50 / rc=2pass / mbtree=1 / bitrate=4557 / ratetol=1.0 / qcomp=0.60 / qpmin=0 / qpmax=69 / qpstep=4 / cplxblur=20.0 / qblur=0.5 / ip_ratio=1.40 / aq=1:1.00Language : EnglishDefault : YesForced : NoAudioID : 2Format : AC-3Format/Info : Audio Coding 3Mode extension : CM (complete main)Format settings, Endianness : BigCodec ID : A_AC3Duration : 2 h 0 minBit rate mode : ConstantBit rate : 640 kb/sChannel(s) : 6 channelsChannel positions : Front: L C R, Side: L R, LFESampling rate : 48.0 kHzFrame rate : 31.250 FPS (1536 spf)Compression mode : LossyStream size : 551 MiB (12%)Language : SpanishDefault : YesForced : NoTextID : 3Format : UTF-8Codec ID : S_TEXT/UTF8Codec ID/Info : UTF-8 Plain TextDuration : 1 h 52 minBit rate : 42 b/sCount of elements : 1183Stream size : 34.8 KiB (0%)Title : forcedLanguage : EnglishDefault : YesForced : YesMenu00:00:00.000 : en:00:00:00.00000:09:06.296 : en:00:09:06.29600:17:22.750 : en:00:17:22.75000:24:26.131 : en:00:24:26.13100:30:44.843 : en:00:30:44.84300:39:58.896 : en:00:39:58.89600:45:13.711 : en:00:45:13.71100:52:21.930 : en:00:52:21.93001:04:19.522 : en:01:04:19.52201:11:23.779 : en:01:11:23.77901:25:56.902 : en:01:25:56.90201:34:39.257 : en:01:34:39.25701:48:56.697 : en:01:48:56.69701:56:15.886 : en:01:56:15.886Click Image To View Full SizeClick To View Screenshot Click To View Screenshot Click To View Screenshot

GlodlsTo

At.the.End.of.the.Tunnel.2016.720p.BluRay.x264-BiPOLAR
ImDb: http://www.imdb.com/title/tt5133308
Complete name : at.the.end.of.the.tunnel.2016.720p.bluray.x264-bipolar.mkv
Format : Matroska
Format version : Version 4 / Version 2
File size : 4.37 GiB
Duration : 2 h 0 min
Overall bit rate : 5 197 kb/s
Encoded date : UTC 2017-01-09 21:41:01
Writing application : mkvmerge v8.3.0 ('Over the Horizon') 64bit
Writing library : libebml v1.3.1 + libmatroska v1.4.2
Video
ID : 1
Format : AVC
Format/Info : Advanced Video Codec
Format profile : /* */
Format settings, CABAC : Yes
Format settings, ReFrames : 5 frames
Codec ID : V_MPEG4/ISO/AVC
Duration : 2 h 0 min
Bit rate : 4 557 kb/s
Width : 1 280 pixels
Height : 536 pixels
Display aspect ratio : 2.40:1
Frame rate mode : Constant
Frame rate : 23.976 (24000/1001) FPS
Color space : YUV
Chroma subsampling : 4:2:0
Bit depth : 8 bits
Scan type : Progressive
Bits/(Pixel*Frame) : 0.277
Stream size : 3.83 GiB (88%)
Writing library : x264 core 148 r2705 3f5ed56
Encoding settings : cabac=1 / ref=5 / deblock=1:0:0 / analyse=0x3:0x133 / me=umh / subme=9 / psy=1 / psy_rd=1.00:0.00 / mixed_ref=1 / me_range=16 / chroma_me=1 / trellis=2 / 8x8dct=1 / cqm=0 / deadzone=21,11 / fast_pskip=0 / chroma_qp_offset=-2 / threads=17 / lookahead_threads=1 / sliced_threads=0 / nr=0 / decimate=1 / interlaced=0 / bluray_compat=0 / constrained_intra=0 / bframes=3 / b_pyramid=2 / b_adapt=2 / b_bias=0 / direct=3 / weightb=1 / open_gop=0 / weightp=2 / keyint=250 / keyint_min=23 / scenecut=40 / intra_refresh=0 / rc_lookahead=50 / rc=2pass / mbtree=1 / bitrate=4557 / ratetol=1.0 / qcomp=0.60 / qpmin=0 / qpmax=69 / qpstep=4 / cplxblur=20.0 / qblur=0.5 / ip_ratio=1.40 / aq=1:1.00
Language : English
Default : Yes
Forced : No
Audio
ID : 2
Format : AC-3
Format/Info : Audio Coding 3
Mode extension : CM (complete main)
Format settings, Endianness : Big
Codec ID : A_AC3
Duration : 2 h 0 min
Bit rate mode : Constant
Bit rate : 640 kb/s
Channel(s) : 6 channels
Channel positions : Front: L C R, Side: L R, LFE
Sampling rate : 48.0 kHz
Frame rate : 31.250 FPS (1536 spf)
Compression mode : Lossy
Stream size : 551 MiB (12%)
Language : Spanish
Default : Yes
Forced : No
Text
ID : 3
Format : UTF-8
Codec ID : S_TEXT/UTF8
Codec ID/Info : UTF-8 Plain Text
Duration : 1 h 52 min
Bit rate : 42 b/s
Count of elements : 1183
Stream size : 34.8 KiB (0%)
Title : forced
Language : English
Default : Yes
Forced : Yes
Menu
00:00:00.000 : en:00:00:00.000
00:09:06.296 : en:00:09:06.296
00:17:22.750 : en:00:17:22.750
00:24:26.131 : en:00:24:26.131
00:30:44.843 : en:00:30:44.843
00:39:58.896 : en:00:39:58.896
00:45:13.711 : en:00:45:13.711
00:52:21.930 : en:00:52:21.930
01:04:19.522 : en:01:04:19.522
01:11:23.779 : en:01:11:23.779
01:25:56.902 : en:01:25:56.902
01:34:39.257 : en:01:34:39.257
01:48:56.697 : en:01:48:56.697
01:56:15.886 : en:01:56:15.886
Click Image To View Full Size
Click To View Screenshot
Click To View Screenshot
Click To View Screenshot

Files (6):

  • Please Support!! Read More!!!.txt (232 B)
  • Sample / at.the.end.of.the.tunnel.2016.720p.bluray.x264-bipolar.sample[PRiME].mkv (32.8 MB)
  • Torrent Downloaded From 1337x.to.txt (69 B)
  • Torrent Downloaded From ExtraTorrent.cc.txt (446 B)
  • Torrent downloaded from AhaShare.com.txt (59 B)
  • at.the.end.of.the.tunnel.2016.720p.bluray.x264-bipolar[PRiME].mkv (4.4 GB)

show full list …

collapse the list

Torrof does not host any content on its servers, but allows his users to search existing torrents for "At.the.End.of.the.Tunnel.2016.720p.BluRay.x264-BiPOLAR[PRiME]" and download it for free from most famous Torrent Trackers: #Ahashare, #Torrentbit, #GlodlsTo, #Limetorrents, #Yourbittorrent, #Seedpeer, #Torrentroom