Avengers 2 The Age Of Ultron Leaked Trailer 280P Stereo

Avengers 2 The Age of Ultron Leaked Trailer 280p Stereo Video / Movie clips

  • 13 MB
  • 0 S
  • 1 L
  • Oct 2014

Download fast (14 free days): Download torrent Magnet link

Description(s):

Thepiratebay

Leaked Avengers 2 Age of Ultron Trailer from Marvel's Agents of Shield s02e05
I downloaded from DailyMotion, sorry for 280p potato quality, that's all that was available.
General
Format : MPEG-4
Format profile : Base Media
Codec ID : isom
File size : 13.0 MiB
Duration : 2mn 11s
Overall bit rate mode : Variable
Overall bit rate : 832 Kbps
Video
ID : 1
Format : AVC
Format/Info : Advanced Video Codec
Format profile : High@L2.1
Format settings, CABAC : Yes
Format settings, ReFrames : 4 frames
Codec ID : avc1
Codec ID/Info : Advanced Video Coding
Duration : 2mn 11s
Bit rate : 700 Kbps
Width : 640 pixels
Height : 272 pixels
Display aspect ratio : 2.35:1
Frame rate mode : Constant
Frame rate : 24.000 fps
Color space : YUV
Chroma subsampling : 4:2:0
Bit depth : 8 bits
Scan type : Progressive
Bits/(Pixel*Frame) : 0.168
Stream size : 10.9 MiB (84%)
Audio
ID : 2
Format : AAC
Format/Info : Advanced Audio Codec
Format profile : LC
Duration : 2mn 11s
Bit rate mode : Variable
Bit rate : 127 Kbps
Maximum bit rate : 800 Kbps
Channel(s) : 2 channels
Channel positions : Front: L R
Sampling rate : 44.1 KHz
Compression mode : Lossy
Stream size : 1.99 MiB (15%)

Torrentdownloadz

Leaked Avengers 2 Age of Ultron Trailer from Marvel\'s Agents of Shield s02e05 I downloaded from DailyMotion, sorry for 280p potato quality, that\'s all that was available. General Format : MPEG-4 Format profile : Base Media Codec ID : isom File size : 13.0 MiB Duration : 2mn 11s Overall bit rate mode : Variable Overall bit rate : 832 Kbps Video ID : 1 Format : AVC Format/Info : Advanced Video Codec Format profile : High@L2.1 Format settings, CABAC : Yes Format settings, ReFrames : 4 frames Codec ID : avc1 Codec ID/Info : Advanced Video Coding Duration : 2mn 11s Bit rate : 700 Kbps Width : 640 pixels Height : 272 pixels Display aspect ratio : 2.35:1 Frame rate mode : Constant Frame rate : 24.000 fps Color space : YUV Chroma subsampling : 4:2:0 Bit depth : 8 bits Scan type : Progressive Bits/(Pixel*Frame) : 0.168 Stream size : 10.9 MiB (84%) Audio ID : 2 Format : AAC Format/Info : Advanced Audio Codec Format profile : LC Duration : 2mn 11s Bit rate mode : Variable Bit rate : 127 Kbps Maximum bit rate : 800 Kbps Channel(s) : 2 channels Channel positions : Front: L R Sampling rate : 44.1 KHz Compression mode : Lossy Stream size : 1.99 MiB (15%)

Files (1):

  • Avengers 2 The Age of Ultron Leaked Trailer 280p Stereo.mp4 (13 MB)
Torrof does not host any content on its servers, but allows his users to search existing torrents for "Avengers 2 The Age of Ultron Leaked Trailer 280p Stereo" and download it for free from most famous Torrent Trackers: #Thepiratebay, #Torrentdownloadz, #Bittorrentz, #Torrentfunk, #Monova