Baron Blood 1972 720P Bluray X264 Psix

Baron Blood 1972 720p Bluray x264-PsiX Video / Horror

  • 1.2 GB
  • 0 S
  • 1 L
  • Jan 2015

Download fast (14 free days): Download torrent Magnet link

Description(s):

Btscene

A young man, Peter, returns to Austria in search of his heritage. There he visits the castle of an ancestor, a sadistic Baron who was cursed to a violent death by a witch whom the Baron had...
Director:
Mario Bava
Writers:
Vincent Fotre (screenplay), Vincent Fotre (story)
Stars:
Joseph Cotten, Elke Sommer, Massimo Girotti
Format : Matroska
Format version : Version 2
File size : 1.20 GiB
Duration : 1h 38mn
Overall bit rate : 1 744 Kbps
Encoded date : UTC 2015-01-06 08:20:14
Writing application : mkvmerge v7.3.0 ('Nouages') 32bit built on Oct 22 2014 18:44:01
Writing library : libebml v1.3.0 + libmatroska v1.4.1
Video
ID : 1
Format : AVC
Format/Info : Advanced Video Codec
Format profile :
/* */
Format settings, CABAC : Yes
Format settings, ReFrames : 6 frames
Codec ID : V_MPEG4/ISO/AVC
Duration : 1h 38mn
Bit rate : 1 550 Kbps
Width : 1 248 pixels
Height : 720 pixels
Display aspect ratio : 1.733
Frame rate mode : Constant
Frame rate : 23.976 fps
Color space : YUV
Chroma subsampling : 4:2:0
Bit depth : 8 bits
Scan type : Progressive
Bits/(Pixel*Frame) : 0.072
Stream size : 1.04 GiB (87%)
Writing library : x264 core 142 r2491 24e4fed
Encoding settings : cabac=1 / ref=6 / deblock=1:-1:-1 / analyse=0x3:0x133 / me=umh / subme=9 / psy=1 / psy_rd=1.00:0.25 / mixed_ref=1 / me_range=16 / chroma_me=1 / trellis=2 / 8x8dct=1 / cqm=0 / deadzone=21,11 / fast_pskip=0 / chroma_qp_offset=-4 / threads=6 / lookahead_threads=1 / sliced_threads=0 / nr=0 / decimate=0 / interlaced=0 / bluray_compat=0 / constrained_intra=0 / bframes=6 / b_pyramid=2 / b_adapt=2 / b_bias=0 / direct=3 / weightb=1 / open_gop=0 / weightp=2 / keyint=230 / keyint_min=23 / scenecut=40 / intra_refresh=0 / rc_lookahead=60 / rc=2pass / mbtree=1 / bitrate=1550 / ratetol=1.0 / qcomp=0.60 / qpmin=10 / qpmax=51 / qpstep=4 / cplxblur=20.0 / qblur=0.5 / ip_ratio=1.40 / aq=1:1.00
Language : English
Audio
ID : 2
Format : AC-3
Format/Info : Audio Coding 3
Mode extension : CM (complete main)
Format settings, Endianness : Big
Codec ID : A_AC3
Duration : 1h 38mn
Bit rate mode : Constant
Bit rate : 192 Kbps
Channel(s) : 2 channels
Channel positions : Front: L R
Sampling rate : 48.0 KHz
Bit depth : 16 bits
Compression mode : Lossy
Stream size : 135 MiB (11%)
Language : English
Default : Yes
Forced : No
Source....: Remux 21.5 Gb
Audio.............: Dubbed English
Sample....: No
Subs....: No
Encoded....: PsiX
Greetz....: tomcat-12 | Blacksheep | FWOLF | CFR | REMALiA.

Kickasstorrents

A young man, Peter, returns to Austria in search of his heritage. There he visits the castle of an ancestor, a sadistic Baron who was cursed to a violent death by a witch whom the Baron had...
Director:
Mario Bava
Writers:
Vincent Fotre (screenplay), Vincent Fotre (story)
Stars:
Joseph Cotten, Elke Sommer, Massimo Girotti
Format : Matroska
Format version : Version 2
File size : 1.20 GiB
Duration : 1h 38mn
Overall bit rate : 1 744 Kbps
Encoded date : UTC 2015-01-06 08:20:14
Writing application : mkvmerge v7.3.0 ('Nouages') 32bit built on Oct 22 2014 18:44:01
Writing library : libebml v1.3.0 + libmatroska v1.4.1
Video
ID : 1
Format : AVC
Format/Info : Advanced Video Codec
Format profile : High@L4.1
Format settings, CABAC : Yes
Format settings, ReFrames : 6 frames
Codec ID : V_MPEG4/ISO/AVC
Duration : 1h 38mn
Bit rate : 1 550 Kbps
Width : 1 248 pixels
Height : 720 pixels
Display aspect ratio : 1.733
Frame rate mode : Constant
Frame rate : 23.976 fps
Color space : YUV
Chroma subsampling : 4:2:0
Bit depth : 8 bits
Scan type : Progressive
Bits/(Pixel*Frame) : 0.072
Stream size : 1.04 GiB (87%)
Writing library : x264 core 142 r2491 24e4fed
Encoding settings : cabac=1 / ref=6 / deblock=1:-1:-1 / analyse=0x3:0x133 / me=umh / subme=9 / psy=1 / psy_rd=1.00:0.25 / mixed_ref=1 / me_range=16 / chroma_me=1 / trellis=2 / 8x8dct=1 / cqm=0 / deadzone=21,11 / fast_pskip=0 / chroma_qp_offset=-4 / threads=6 / lookahead_threads=1 / sliced_threads=0 / nr=0 / decimate=0 / interlaced=0 / bluray_compat=0 / constrained_intra=0 / bframes=6 / b_pyramid=2 / b_adapt=2 / b_bias=0 / direct=3 / weightb=1 / open_gop=0 / weightp=2 / keyint=230 / keyint_min=23 / scenecut=40 / intra_refresh=0 / rc_lookahead=60 / rc=2pass / mbtree=1 / bitrate=1550 / ratetol=1.0 / qcomp=0.60 / qpmin=10 / qpmax=51 / qpstep=4 / cplxblur=20.0 / qblur=0.5 / ip_ratio=1.40 / aq=1:1.00
Language : English
Audio
ID : 2
Format : AC-3
Format/Info : Audio Coding 3
Mode extension : CM (complete main)
Format settings, Endianness : Big
Codec ID : A_AC3
Duration : 1h 38mn
Bit rate mode : Constant
Bit rate : 192 Kbps
Channel(s) : 2 channels
Channel positions : Front: L R
Sampling rate : 48.0 KHz
Bit depth : 16 bits
Compression mode : Lossy
Stream size : 135 MiB (11%)
Language : English
Default : Yes
Forced : No
Source....: Remux 21.5 Gb
Audio.............: Dubbed English
Sample....: No
Subs....: No
Encoded....: PsiX
Greetz....: tomcat-12 | Blacksheep | FWOLF | CFR | REMALiA.

Files (2):

  • Baron.Blood.1972.720p.Bluray.x264-PsiX.mkv (1.2 GB)
  • Cover.jpg (122 KB)
Torrof does not host any content on its servers, but allows his users to search existing torrents for "Baron Blood 1972 720p Bluray x264-PsiX" and download it for free from most famous Torrent Trackers: #Btscene, #Kickasstorrents, #A2ZTorrent, #Limetorrents, #Bitsnoop, #Seedpeer, #Torrentfunk, #Monova