Beyonce - Lemonade Music / Other

  • 3.2 GB
  • 12 S
  • 3 L
  • Jan 2017

Download fast (14 free days): Download torrent Magnet link

Description(s):

Torrentbit

_______ Visit us at our Private Music Bittorrent Community ________ http://iboom.pm _____________________________ http://iboom.pm General Format : MPEG-4 Format profile : Base Media File size : 3.18 GiB Duration : 1h 5mn Overall bit rate : 6 962 Kbps Writing application : Lavf57.25.100 Video ID : 1 Format : AVC Format/Info : Advanced Video Codec Format profile : /* */ Format settings, CABAC : Yes Format settings, ReFrames : 8 frames Codec ID : avc1 Codec ID/Info : Advanced Video Coding Duration : 1h 5mn Bit rate : 6 637 Kbps Width : 1 920 pixels Height : 1 080 pixels Display aspect ratio : 16:9 Frame rate mode : Constant Frame rate : 23.976 (24000/1001) fps Bit depth : 8 bits Scan type : Progressive Bits/(Pixel*Frame) : 0.133 Stream size : 3.03 GiB (95%) Writing library : x264 core 148 Audio ID : 2 Format : AAC Format/Info : Advanced Audio Codec Format profile : LC Codec ID : 40 Duration : 1h 5mn Duration_LastFrame : 36ms Bit rate mode : Constant Bit rate : 320 Kbps Channel(s) : 2 channels Channel positions : Front: L R Sampling rate : 48.0 KHz Frame rate : 46.875 fps (1024 spf) Compression mode : Lossy Stream size : 150 MiB (5%) Language : English Default : Yes Alternate group : 1 Encoded date : UTC 1904-01-01 00:00:00 Tagged date : UTC 1904-01-01 00:00:00 Menus : 3 00:00:00.000 : INTUITION 00:03:26.206 : PRAY YOU CATCH ME 00:04:36.193 : DENIAL 00:06:20.255 : HOLD UP 00:10:28.711 : ANGER 00:12:22.283 : DON'T HURT YOURSELF 00:16:20.688 : APATHY 00:17:22.458 : SORRY 00:20:49.039 : EMPTINESS 00:27:53.672 : ACCOUNTABILITY 00:31:05.947 : DADDY LESSONS 00:35:13.445 : REFORMATION 00:36:06.289 : LOVE DROUGHT 00:38:18.922 : FORGIVNESS 00:39:40.044 : SANDCASTLES 00:42:50.693 : RESURRECTION 00:43:49.919 : FORWARD 00:46:28.160 : HOPE 00:47:29.055 : FREEDOM 00:50:24.104 : REDEMPTION 00:53:24.201 : ALL NIGHT 00:56:44.318 : CREDITS Bit rate mode : VBR

Thepiratebay

_______ Visit us at our Private Music Bittorrent Community ________
http://iboom.pm _____________________________ http://iboom.pm
http://ititli.com/qRs
General
Format : MPEG-4
Format profile : Base Media
File size : 3.18 GiB
Duration : 1h 5mn
Overall bit rate : 6 962 Kbps
Writing application : Lavf57.25.100
Video
ID : 1
Format : AVC
Format/Info : Advanced Video Codec
Format profile : /* */
Format settings, CABAC : Yes
Format settings, ReFrames : 8 frames
Codec ID : avc1
Codec ID/Info : Advanced Video Coding
Duration : 1h 5mn
Bit rate : 6 637 Kbps
Width : 1 920 pixels
Height : 1 080 pixels
Display aspect ratio : 16:9
Frame rate mode : Constant
Frame rate : 23.976 (24000/1001) fps
Bit depth : 8 bits
Scan type : Progressive
Bits/(Pixel*Frame) : 0.133
Stream size : 3.03 GiB (95%)
Writing library : x264 core 148
Audio
ID : 2
Format : AAC
Format/Info : Advanced Audio Codec
Format profile : LC
Codec ID : 40
Duration : 1h 5mn
Duration_LastFrame : 36ms
Bit rate mode : Constant
Bit rate : 320 Kbps
Channel(s) : 2 channels
Channel positions : Front: L R
Sampling rate : 48.0 KHz
Frame rate : 46.875 fps (1024 spf)
Compression mode : Lossy
Stream size : 150 MiB (5%)
Language : English
Default : Yes
http://ititli.com/qRG
http://ititli.com/qRH
http://ititli.com/qRM
http://ititli.com/qRU
http://ititli.com/qRh

Files (2):

  • Beyoncé - LEMONADE (The Visual Album).mp4 (3.2 GB)
  • Torrent downloaded from iBooM.pm.txt (39 B)
Torrof does not host any content on its servers, but allows his users to search existing torrents for "Beyonce - Lemonade" and download it for free from most famous Torrent Trackers: #Torrentbit, #Limetorrents, #Seedpeer, #Thepiratebay, #Torrentroom, #Yourbittorrent