Breaking Bad S05E04 720P X264 [Mkv Ac3 5.1] Ehhhh

Breaking Bad S05E04 - 720p x264 [MKV,AC3,5.1] Ehhhh Video / Standard

  • 468 MB
  • 0 S
  • 0 L
  • Oct 2014

Download fast (14 free days): Magnet link

Description(s):

Monova

Fifty-One
Episode 4
8/5/12
Skyler considers packing up the kids and leaving.
Walt and Jesse\'s ongoing plan may be foiled by a
new team member.
General
Format : Matroska
Format version : Version 4 / Version 2
File size : 468 MiB
Duration : 47mn 9s
Overall bit rate : 1 386 Kbps
Encoded date : UTC 2013-08-07 15:16:51
Writing application : mkvmerge v6.2.0 (\'Promised
Land\') built on Apr 28 2013 12:22:01
Writing library : libebml v1.3.0 + libmatroska
v1.4.0
Video
ID : 1
Format : AVC
Format/Info : Advanced Video Codec
Format profile : High@L4.1
Format settings, CABAC : Yes
Format settings, ReFrames : 14 frames
Codec ID : V_MPEG4/ISO/AVC
Duration : 47mn 9s
Bit rate : 1 010 Kbps
Width : 1 280 pixels
Height : 720 pixels
Display aspect ratio : 16:9
Frame rate mode : Constant
Frame rate : 23.976 fps
Color space : YUV
Chroma subsampling : 4:2:0
Bit depth : 8 bits
Scan type : Progressive
Bits/(Pixel*Frame) : 0.046
Stream size : 329 MiB (70%)
Writing library : x264 core 136 r2348+704+51
d1baef6 tMod
Default : Yes
Forced : No
Audio
ID : 2
Format : AC-3
Format/Info : Audio Coding 3
Mode extension : CM (complete main)
Format settings, Endianness : Big
Codec ID : A_AC3
Duration : 47mn 9s
Bit rate mode : Constant
Bit rate : 384 Kbps
Channel(s) : 6 channels
Channel positions : Front: L C R, Side: L R,
LFE
Sampling rate : 44.1 KHz
Bit depth : 16 bits
Compression mode : Lossy
Stream size : 130 MiB (28%)
Default : Yes
Forced : No

Thepiratebay

Fifty-One
Episode 4
8/5/12
Skyler considers packing up the kids and leaving. Walt and Jesse's ongoing plan may be foiled by a new team member.
General
Format : Matroska
Format version : Version 4 / Version 2
File size : 468 MiB
Duration : 47mn 9s
Overall bit rate : 1 386 Kbps
Encoded date : UTC 2013-08-07 15:16:51
Writing application : mkvmerge v6.2.0 ('Promised Land') built on Apr 28 2013 12:22:01
Writing library : libebml v1.3.0 + libmatroska v1.4.0
Video
ID : 1
Format : AVC
Format/Info : Advanced Video Codec
Format profile : High@L4.1
Format settings, CABAC : Yes
Format settings, ReFrames : 14 frames
Codec ID : V_MPEG4/ISO/AVC
Duration : 47mn 9s
Bit rate : 1 010 Kbps
Width : 1 280 pixels
Height : 720 pixels
Display aspect ratio : 16:9
Frame rate mode : Constant
Frame rate : 23.976 fps
Color space : YUV
Chroma subsampling : 4:2:0
Bit depth : 8 bits
Scan type : Progressive
Bits/(Pixel*Frame) : 0.046
Stream size : 329 MiB (70%)
Writing library : x264 core 136 r2348+704+51 d1baef6 tMod
Default : Yes
Forced : No
Audio
ID : 2
Format : AC-3
Format/Info : Audio Coding 3
Mode extension : CM (complete main)
Format settings, Endianness : Big
Codec ID : A_AC3
Duration : 47mn 9s
Bit rate mode : Constant
Bit rate : 384 Kbps
Channel(s) : 6 channels
Channel positions : Front: L C R, Side: L R, LFE
Sampling rate : 44.1 KHz
Bit depth : 16 bits
Compression mode : Lossy
Stream size : 130 MiB (28%)
Default : Yes
Forced : No

Kickasstorrents

Fifty-One
Episode 4
8/5/12
Skyler considers packing up the kids and leaving. Walt and Jesse's ongoing plan may be foiled by a new team member.
General
Format : Matroska
Format version : Version 4 / Version 2
File size : 468 MiB
Duration : 47mn 9s
Overall bit rate : 1 386 Kbps
Encoded date : UTC 2013-08-07 15:16:51
Writing application : mkvmerge v6.2.0 ('Promised Land') built on Apr 28 2013 12:22:01
Writing library : libebml v1.3.0 + libmatroska v1.4.0
Video
ID : 1
Format : AVC
Format/Info : Advanced Video Codec
Format profile : High@L4.1
Format settings, CABAC : Yes
Format settings, ReFrames : 14 frames
Codec ID : V_MPEG4/ISO/AVC
Duration : 47mn 9s
Bit rate : 1 010 Kbps
Width : 1 280 pixels
Height : 720 pixels
Display aspect ratio : 16:9
Frame rate mode : Constant
Frame rate : 23.976 fps
Color space : YUV
Chroma subsampling : 4:2:0
Bit depth : 8 bits
Scan type : Progressive
Bits/(Pixel*Frame) : 0.046
Stream size : 329 MiB (70%)
Writing library : x264 core 136 r2348+704+51 d1baef6 tMod
Default : Yes
Forced : No
Audio
ID : 2
Format : AC-3
Format/Info : Audio Coding 3
Mode extension : CM (complete main)
Format settings, Endianness : Big
Codec ID : A_AC3
Duration : 47mn 9s
Bit rate mode : Constant
Bit rate : 384 Kbps
Channel(s) : 6 channels
Channel positions : Front: L C R, Side: L R, LFE
Sampling rate : 44.1 KHz
Bit depth : 16 bits
Compression mode : Lossy
Stream size : 130 MiB (28%)
Default : Yes
Forced : No

Files (3):

Torrof does not host any content on its servers, but allows his users to search existing torrents for "Breaking Bad S05E04 - 720p x264 [MKV,AC3,5.1] Ehhhh" and download it for free from most famous Torrent Trackers: #Monova, #Thepiratebay, #Kickasstorrents, #Torrents, #Seedpeer, #Limetorrents, #Torrentroom, #Torrentsland, #Sumotorrent