Christine 2016 Hdrip Xvid Ac3 Ift

Christine 2016 HDRip XviD AC3-iFT Video / BD / HD / X264

  • 1.9 GB
  • 2 S
  • 0 L
  • Jan 2017

Download fast (14 free days): Download torrent Magnet link

Description(s):

Ahashare

Christine.2016.HDRip.XviD.AC3-iFT
ImDb: http://www.imdb.com/title/tt4666726
Complete name : Christine.2016.HDRip.XviD.AC3-iFT.avi
Format : AVI
Format/Info : Audio Video Interleave
Format profile : OpenDML
Format settings : rec
File size : 1.90 GiB
Duration : 1 h 59 min
Overall bit rate : 2 285 kb/s
Writing application : AVI-Mux GUI 1.17.8.3, Feb 16 201019:42:50
Video
ID : 0
Format : MPEG-4 Visual
Format profile : Advanced Simple@L5
Format settings, BVOP : 2
Format settings, QPel : No
Format settings, GMC : No warppoints
Format settings, Matrix : Default (H.263)
Muxing mode : Packed bitstream
Codec ID : XVID
Codec ID/Hint : XviD
Duration : 1 h 59 min
Bit rate : 1 896 kb/s
Width : 720 pixels
Height : 400 pixels
Display aspect ratio : 16:9
Frame rate : 23.976 (23976/1000) FPS
Color space : YUV
Chroma subsampling : 4:2:0
Bit depth : 8 bits
Scan type : Progressive
Compression mode : Lossy
Bits/(Pixel*Frame) : 0.275
Stream size : 1.58 GiB (83%)
Writing library : XviD 73
Audio
ID : 1
Format : AC-3
Format/Info : Audio Coding 3
Mode extension : CM (complete main)
Format settings, Endianness : Big
Codec ID : 2000
Duration : 1 h 59 min
Bit rate mode : Constant
Bit rate : 384 kb/s
Channel(s) : 6 channels
Channel positions : Front: L C R, Side: L R, LFE
Sampling rate : 48.0 kHz
Frame rate : 31.250 FPS (1536 spf)
Compression mode : Lossy
Stream size : 327 MiB (17%)
Alignment : Aligned on interleaves
Interleave, duration : 64 ms (1.53 video frames)
Interleave, preload duration : 192 ms
Title : Christine.track_2
Click Image To View Full Size
Click To View Screenshot
Click To View Screenshot
Click To View Screenshot

Torrentbit

Christine.2016.HDRip.XviD.AC3-iFTImDb: http://www.imdb.com/title/tt4666726Complete name : Christine.2016.HDRip.XviD.AC3-iFT.aviFormat : AVIFormat/Info : Audio Video InterleaveFormat profile : OpenDMLFormat settings : recFile size : 1.90 GiBDuration : 1 h 59 minOverall bit rate : 2 285 kb/sWriting application : AVI-Mux GUI 1.17.8.3, Feb 16 201019:42:50VideoID : 0Format : MPEG-4 VisualFormat profile : Advanced /* */Format settings, BVOP : 2Format settings, QPel : NoFormat settings, GMC : No warppointsFormat settings, Matrix : Default (H.263)Muxing mode : Packed bitstreamCodec ID : XVIDCodec ID/Hint : XviDDuration : 1 h 59 minBit rate : 1 896 kb/sWidth : 720 pixelsHeight : 400 pixelsDisplay aspect ratio : 16:9Frame rate : 23.976 (23976/1000) FPSColor space : YUVChroma subsampling : 4:2:0Bit depth : 8 bitsScan type : ProgressiveCompression mode : LossyBits/(Pixel*Frame) : 0.275Stream size : 1.58 GiB (83%)Writing library : XviD 73AudioID : 1Format : AC-3Format/Info : Audio Coding 3Mode extension : CM (complete main)Format settings, Endianness : BigCodec ID : 2000Duration : 1 h 59 minBit rate mode : ConstantBit rate : 384 kb/sChannel(s) : 6 channelsChannel positions : Front: L C R, Side: L R, LFESampling rate : 48.0 kHzFrame rate : 31.250 FPS (1536 spf)Compression mode : LossyStream size : 327 MiB (17%)Alignment : Aligned on interleavesInterleave, duration : 64 ms (1.53 video frames)Interleave, preload duration : 192 msTitle : Christine.track_2Click Image To View Full SizeClick To View Screenshot Click To View Screenshot Click To View Screenshot

GlodlsTo

Christine.2016.HDRip.XviD.AC3-iFT
ImDb: http://www.imdb.com/title/tt4666726
Complete name : Christine.2016.HDRip.XviD.AC3-iFT.avi
Format : AVI
Format/Info : Audio Video Interleave
Format profile : OpenDML
Format settings : rec
File size : 1.90 GiB
Duration : 1 h 59 min
Overall bit rate : 2 285 kb/s
Writing application : AVI-Mux GUI 1.17.8.3, Feb 16 201019:42:50
Video
ID : 0
Format : MPEG-4 Visual
Format profile : Advanced /* */
Format settings, BVOP : 2
Format settings, QPel : No
Format settings, GMC : No warppoints
Format settings, Matrix : Default (H.263)
Muxing mode : Packed bitstream
Codec ID : XVID
Codec ID/Hint : XviD
Duration : 1 h 59 min
Bit rate : 1 896 kb/s
Width : 720 pixels
Height : 400 pixels
Display aspect ratio : 16:9
Frame rate : 23.976 (23976/1000) FPS
Color space : YUV
Chroma subsampling : 4:2:0
Bit depth : 8 bits
Scan type : Progressive
Compression mode : Lossy
Bits/(Pixel*Frame) : 0.275
Stream size : 1.58 GiB (83%)
Writing library : XviD 73
Audio
ID : 1
Format : AC-3
Format/Info : Audio Coding 3
Mode extension : CM (complete main)
Format settings, Endianness : Big
Codec ID : 2000
Duration : 1 h 59 min
Bit rate mode : Constant
Bit rate : 384 kb/s
Channel(s) : 6 channels
Channel positions : Front: L C R, Side: L R, LFE
Sampling rate : 48.0 kHz
Frame rate : 31.250 FPS (1536 spf)
Compression mode : Lossy
Stream size : 327 MiB (17%)
Alignment : Aligned on interleaves
Interleave, duration : 64 ms (1.53 video frames)
Interleave, preload duration : 192 ms
Title : Christine.track_2
Click Image To View Full Size
Click To View Screenshot
Click To View Screenshot
Click To View Screenshot

Files (7):

  • Christine.2016.HDRip.XviD.AC3-iFT[PRiME].avi (1.9 GB)
  • Please Support!! Read More!!!.txt (232 B)
  • Sample / Sample[PRiME].avi (12.2 MB)
  • Subtitles / English.srt (146 KB)
  • Torrent Downloaded From 1337x.to.txt (69 B)
  • Torrent Downloaded From ExtraTorrent.cc.txt (446 B)
  • Torrent downloaded from AhaShare.com.txt (59 B)

show full list …

collapse the list

Torrof does not host any content on its servers, but allows his users to search existing torrents for "Christine 2016 HDRip XviD AC3-iFT" and download it for free from most famous Torrent Trackers: #Ahashare, #Torrentbit, #GlodlsTo, #Limetorrents, #Yourbittorrent