Dangerous.liaisons.1988.1080P.bluray.x264 Amiable [Norar][Prime]

Dangerous.Liaisons.1988.1080p.BluRay.X264-AMIABLE [NORAR][PRiME] Video / BD / HD / X264

  • 8.8 GB
  • 0 S
  • 2 L
  • Jan 2017

Download fast (14 free days): Download torrent Magnet link

Description(s):

Ahashare

Dangerous.Liaisons.1988.1080p.BluRay.X264-AMIABLE
ImDb: http://www.imdb.com/title/tt0094947
Complete name : Dangerous.Liaisons.1988.1080p.BluRay.X264-AMIABLE.mkv
Format : Matroska
Format version : Version 2
File size : 8.74 GiB
Duration : 1 h 59 min
Overall bit rate : 10.4 Mb/s
Writing application : x264.exe
Writing library : mkv2rls v1.4 (date: 2011 mar 29)
Video
ID : 1
Format : AVC
Format/Info : Advanced Video Codec
Format profile : High@L4.1
Format settings, CABAC : Yes
Format settings, ReFrames : 4 frames
Codec ID : V_MPEG4/ISO/AVC
Duration : 1 h 59 min
Bit rate : 8 934 kb/s
Width : 1 920 pixels
Height : 1 080 pixels
Display aspect ratio : 16:9
Frame rate mode : Constant
Frame rate : 23.976 (24000/1001) FPS
Color space : YUV
Chroma subsampling : 4:2:0
Bit depth : 8 bits
Scan type : Progressive
Bits/(Pixel*Frame) : 0.180
Stream size : 7.31 GiB (84%)
Writing library : x264 core 120 r2146 bcd41db
Encoding settings : cabac=1 / ref=4 / deblock=1:0:0 / analyse=0x3:0x113 / me=umh / subme=8 / psy=1 / psy_rd=1.00:0.00 / mixed_ref=1 / me_range=16 / chroma_me=1 / trellis=1 / 8x8dct=1 / cqm=0 / deadzone=21,11 / fast_pskip=1 / chroma_qp_offset=-2 / threads=12 / sliced_threads=0 / nr=0 / decimate=1 / interlaced=0 / bluray_compat=0 / constrained_intra=0 / bframes=3 / b_pyramid=2 / b_adapt=2 / b_bias=0 / direct=3 / weightb=1 / open_gop=0 / weightp=2 / keyint=240 / keyint_min=24 / scenecut=40 / intra_refresh=0 / rc_lookahead=50 / rc=2pass / mbtree=1 / bitrate=8934 / ratetol=1.0 / qcomp=0.60 / qpmin=0 / qpmax=69 / qpstep=4 / cplxblur=20.0 / qblur=0.5 / ip_ratio=1.40 / aq=1:1.00
Language : English
Default : Yes
Forced : No
Audio
ID : 2
Format : DTS
Format/Info : Digital Theater Systems
Mode : 16
Format settings, Endianness : Big
Codec ID : A_DTS
Duration : 1 h 59 min
Bit rate mode : Constant
Bit rate : 1 509 kb/s
Channel(s) : 6 channels
Channel positions : Front: L C R, Side: L R, LFE
Sampling rate : 48.0 kHz
Frame rate : 93.750 FPS (512 spf)
Bit depth : 24 bits
Compression mode : Lossy
Stream size : 1.26 GiB (14%)
Language : English
Default : Yes
Forced : No
Text
ID : 3
Format : UTF-8
Codec ID : S_TEXT/UTF8
Codec ID/Info : UTF-8 Plain Text
Language : English
Default : No
Forced : No
Menu
00:00:00.000 : en:00:00:00.000
00:04:13.253 : en:00:04:13.253
00:06:45.071 : en:00:06:45.071
00:10:41.766 : en:00:10:41.766
00:13:08.329 : en:00:13:08.329
00:19:01.932 : en:00:19:01.932
00:22:14.708 : en:00:22:14.708
00:24:29.635 : en:00:24:29.635
00:27:49.293 : en:00:27:49.293
00:30:35.542 : en:00:30:35.542
00:33:03.773 : en:00:33:03.773
00:36:56.714 : en:00:36:56.714
00:41:03.461 : en:00:41:03.461
00:48:30.741 : en:00:48:30.741
00:52:46.580 : en:00:52:46.580
00:56:11.034 : en:00:56:11.034
00:59:39.993 : en:00:59:39.993
01:02:03.345 : en:01:02:03.345
01:07:08.566 : en:01:07:08.566
01:11:25.531 : en:01:11:25.531
01:14:36.222 : en:01:14:36.222
01:16:33.130 : en:01:16:33.130
01:20:29.742 : en:01:20:29.742
01:25:23.702 : en:01:25:23.702
01:30:46.441 : en:01:30:46.441
01:32:27.041 : en:01:32:27.041
01:36:16.479 : en:01:36:16.479
01:40:57.885 : en:01:40:57.885
01:46:31.969 : en:01:46:31.969
01:49:14.006 : en:01:49:14.006
01:52:59.690 : en:01:52:59.690
01:54:29.196 : en:01:54:29.196
01:55:38.223 : en:01:55:38.223
01:56:59.638 : en:01:56:59.638
Click Image To View Full Size
Click To View Screenshot
Click To View Screenshot
Click To View Screenshot

Torrentbit

Dangerous.Liaisons.1988.1080p.BluRay.X264-AMIABLE ImDb: http://www.imdb.com/title/tt0094947Complete name : Dangerous.Liaisons.1988.1080p.BluRay.X264-AMIABLE.mkvFormat : MatroskaFormat version : Version 2File size : 8.74 GiBDuration : 1 h 59 minOverall bit rate : 10.4 Mb/sWriting application : x264.exeWriting library : mkv2rls v1.4 (date: 2011 mar 29)VideoID : 1Format : AVCFormat/Info : Advanced Video CodecFormat profile : /* */Format settings, CABAC : YesFormat settings, ReFrames : 4 framesCodec ID : V_MPEG4/ISO/AVCDuration : 1 h 59 minBit rate : 8 934 kb/sWidth : 1 920 pixelsHeight : 1 080 pixelsDisplay aspect ratio : 16:9Frame rate mode : ConstantFrame rate : 23.976 (24000/1001) FPSColor space : YUVChroma subsampling : 4:2:0Bit depth : 8 bitsScan type : ProgressiveBits/(Pixel*Frame) : 0.180Stream size : 7.31 GiB (84%)Writing library : x264 core 120 r2146 bcd41dbEncoding settings : cabac=1 / ref=4 / deblock=1:0:0 / analyse=0x3:0x113 / me=umh / subme=8 / psy=1 / psy_rd=1.00:0.00 / mixed_ref=1 / me_range=16 / chroma_me=1 / trellis=1 / 8x8dct=1 / cqm=0 / deadzone=21,11 / fast_pskip=1 / chroma_qp_offset=-2 / threads=12 / sliced_threads=0 / nr=0 / decimate=1 / interlaced=0 / bluray_compat=0 / constrained_intra=0 / bframes=3 / b_pyramid=2 / b_adapt=2 / b_bias=0 / direct=3 / weightb=1 / open_gop=0 / weightp=2 / keyint=240 / keyint_min=24 / scenecut=40 / intra_refresh=0 / rc_lookahead=50 / rc=2pass / mbtree=1 / bitrate=8934 / ratetol=1.0 / qcomp=0.60 / qpmin=0 / qpmax=69 / qpstep=4 / cplxblur=20.0 / qblur=0.5 / ip_ratio=1.40 / aq=1:1.00Language : EnglishDefault : YesForced : NoAudioID : 2Format : DTSFormat/Info : Digital Theater SystemsMode : 16Format settings, Endianness : BigCodec ID : A_DTSDuration : 1 h 59 minBit rate mode : ConstantBit rate : 1 509 kb/sChannel(s) : 6 channelsChannel positions : Front: L C R, Side: L R, LFESampling rate : 48.0 kHzFrame rate : 93.750 FPS (512 spf)Bit depth : 24 bitsCompression mode : LossyStream size : 1.26 GiB (14%)Language : EnglishDefault : YesForced : NoTextID : 3Format : UTF-8Codec ID : S_TEXT/UTF8Codec ID/Info : UTF-8 Plain TextLanguage : EnglishDefault : NoForced : NoMenu00:00:00.000 : en:00:00:00.00000:04:13.253 : en:00:04:13.25300:06:45.071 : en:00:06:45.07100:10:41.766 : en:00:10:41.76600:13:08.329 : en:00:13:08.32900:19:01.932 : en:00:19:01.93200:22:14.708 : en:00:22:14.70800:24:29.635 : en:00:24:29.63500:27:49.293 : en:00:27:49.29300:30:35.542 : en:00:30:35.54200:33:03.773 : en:00:33:03.77300:36:56.714 : en:00:36:56.71400:41:03.461 : en:00:41:03.46100:48:30.741 : en:00:48:30.74100:52:46.580 : en:00:52:46.58000:56:11.034 : en:00:56:11.03400:59:39.993 : en:00:59:39.99301:02:03.345 : en:01:02:03.34501:07:08.566 : en:01:07:08.56601:11:25.531 : en:01:11:25.53101:14:36.222 : en:01:14:36.22201:16:33.130 : en:01:16:33.13001:20:29.742 : en:01:20:29.74201:25:23.702 : en:01:25:23.70201:30:46.441 : en:01:30:46.44101:32:27.041 : en:01:32:27.04101:36:16.479 : en:01:36:16.47901:40:57.885 : en:01:40:57.88501:46:31.969 : en:01:46:31.96901:49:14.006 : en:01:49:14.00601:52:59.690 : en:01:52:59.69001:54:29.196 : en:01:54:29.19601:55:38.223 : en:01:55:38.22301:56:59.638 : en:01:56:59.638Click Image To View Full SizeClick To View Screenshot Click To View Screenshot Click To View Screenshot

GlodlsTo

Dangerous.Liaisons.1988.1080p.BluRay.X264-AMIABLE
ImDb: http://www.imdb.com/title/tt0094947
Complete name : Dangerous.Liaisons.1988.1080p.BluRay.X264-AMIABLE.mkv
Format : Matroska
Format version : Version 2
File size : 8.74 GiB
Duration : 1 h 59 min
Overall bit rate : 10.4 Mb/s
Writing application : x264.exe
Writing library : mkv2rls v1.4 (date: 2011 mar 29)
Video
ID : 1
Format : AVC
Format/Info : Advanced Video Codec
Format profile : /* */
Format settings, CABAC : Yes
Format settings, ReFrames : 4 frames
Codec ID : V_MPEG4/ISO/AVC
Duration : 1 h 59 min
Bit rate : 8 934 kb/s
Width : 1 920 pixels
Height : 1 080 pixels
Display aspect ratio : 16:9
Frame rate mode : Constant
Frame rate : 23.976 (24000/1001) FPS
Color space : YUV
Chroma subsampling : 4:2:0
Bit depth : 8 bits
Scan type : Progressive
Bits/(Pixel*Frame) : 0.180
Stream size : 7.31 GiB (84%)
Writing library : x264 core 120 r2146 bcd41db
Encoding settings : cabac=1 / ref=4 / deblock=1:0:0 / analyse=0x3:0x113 / me=umh / subme=8 / psy=1 / psy_rd=1.00:0.00 / mixed_ref=1 / me_range=16 / chroma_me=1 / trellis=1 / 8x8dct=1 / cqm=0 / deadzone=21,11 / fast_pskip=1 / chroma_qp_offset=-2 / threads=12 / sliced_threads=0 / nr=0 / decimate=1 / interlaced=0 / bluray_compat=0 / constrained_intra=0 / bframes=3 / b_pyramid=2 / b_adapt=2 / b_bias=0 / direct=3 / weightb=1 / open_gop=0 / weightp=2 / keyint=240 / keyint_min=24 / scenecut=40 / intra_refresh=0 / rc_lookahead=50 / rc=2pass / mbtree=1 / bitrate=8934 / ratetol=1.0 / qcomp=0.60 / qpmin=0 / qpmax=69 / qpstep=4 / cplxblur=20.0 / qblur=0.5 / ip_ratio=1.40 / aq=1:1.00
Language : English
Default : Yes
Forced : No
Audio
ID : 2
Format : DTS
Format/Info : Digital Theater Systems
Mode : 16
Format settings, Endianness : Big
Codec ID : A_DTS
Duration : 1 h 59 min
Bit rate mode : Constant
Bit rate : 1 509 kb/s
Channel(s) : 6 channels
Channel positions : Front: L C R, Side: L R, LFE
Sampling rate : 48.0 kHz
Frame rate : 93.750 FPS (512 spf)
Bit depth : 24 bits
Compression mode : Lossy
Stream size : 1.26 GiB (14%)
Language : English
Default : Yes
Forced : No
Text
ID : 3
Format : UTF-8
Codec ID : S_TEXT/UTF8
Codec ID/Info : UTF-8 Plain Text
Language : English
Default : No
Forced : No
Menu
00:00:00.000 : en:00:00:00.000
00:04:13.253 : en:00:04:13.253
00:06:45.071 : en:00:06:45.071
00:10:41.766 : en:00:10:41.766
00:13:08.329 : en:00:13:08.329
00:19:01.932 : en:00:19:01.932
00:22:14.708 : en:00:22:14.708
00:24:29.635 : en:00:24:29.635
00:27:49.293 : en:00:27:49.293
00:30:35.542 : en:00:30:35.542
00:33:03.773 : en:00:33:03.773
00:36:56.714 : en:00:36:56.714
00:41:03.461 : en:00:41:03.461
00:48:30.741 : en:00:48:30.741
00:52:46.580 : en:00:52:46.580
00:56:11.034 : en:00:56:11.034
00:59:39.993 : en:00:59:39.993
01:02:03.345 : en:01:02:03.345
01:07:08.566 : en:01:07:08.566
01:11:25.531 : en:01:11:25.531
01:14:36.222 : en:01:14:36.222
01:16:33.130 : en:01:16:33.130
01:20:29.742 : en:01:20:29.742
01:25:23.702 : en:01:25:23.702
01:30:46.441 : en:01:30:46.441
01:32:27.041 : en:01:32:27.041
01:36:16.479 : en:01:36:16.479
01:40:57.885 : en:01:40:57.885
01:46:31.969 : en:01:46:31.969
01:49:14.006 : en:01:49:14.006
01:52:59.690 : en:01:52:59.690
01:54:29.196 : en:01:54:29.196
01:55:38.223 : en:01:55:38.223
01:56:59.638 : en:01:56:59.638
Click Image To View Full Size
Click To View Screenshot
Click To View Screenshot
Click To View Screenshot

Files (7):

  • Dangerous.Liaisons.1988.1080p.BluRay.X264-AMIABLE.idx (676 KB)
  • Dangerous.Liaisons.1988.1080p.BluRay.X264-AMIABLE.sub (96.1 MB)
  • Dangerous.Liaisons.1988.1080p.BluRay.X264-AMIABLE[PRiME].mkv (8.7 GB)
  • Please Support!! Read More!!!.txt (232 B)
  • Torrent Downloaded From 1337x.to.txt (69 B)
  • Torrent Downloaded From ExtraTorrent.cc.txt (446 B)
  • Torrent downloaded from AhaShare.com.txt (59 B)

show full list …

collapse the list

Torrof does not host any content on its servers, but allows his users to search existing torrents for "Dangerous.Liaisons.1988.1080p.BluRay.X264-AMIABLE [NORAR][PRiME]" and download it for free from most famous Torrent Trackers: #Ahashare, #Torrentbit, #GlodlsTo, #Limetorrents, #Yourbittorrent, #Seedpeer, #Btscene