Draft Day 2014 720P Bluray Dts X264 Worldwide7477

Draft Day 2014 720p Bluray DTS x264 Worldwide7477 Video / Sports Related

  • 3.1 GB
  • 0 S
  • 1 L
  • Aug 2014

Download fast (14 free days): Download torrent Magnet link

Description(s):

Btscene

File Size: 3.04 GiB
Release Title: Draft Day 2014 720p Bluray DTS x264 Worldwide7477
Certification: Rated - R
Release Date: 11 April 2014
Audio language: English
SubTitles: English | English | Spanish
Duration: 1h 50mn
Overall Bitrate: 3 955 Kbps
Encoding Type: MKV
Encoder: Worldwide7477
Storyline:
At the NFL Draft, general manager Sonny Weaver has the opportunity to rebuild his team when he trades for the number one pick. He must decide what he's willing to sacrifice on a life-changing day for a few hundred young men with NFL dreams.
.:General Info:.
Genre: Drama | Sport
Imdb Url: http://www.imdb.com/title/tt2223990
Rating: 6.8/10
Cast:
Kevin Costner, Chadwick Boseman, Jennifer Garner
.:Video Info:.
Video Codec Type: x264
Source: Blu-Ray
Container: V_MPEG4/ISO/AVC
Format: Matroska
Resolution: 1280 X 528 pixels
Aspect ratio(AR): 2.40:1
Video Bitrate: 3 199 Kbps
Frame Rate: 23.976 fps
.:Audio Info:.
Audio Codec: DTS
Bitrate: 755 Kbps
Channel Count: 6 channels (Front: L C R, Side: L R, LFE)
FootNote(s):
Recommends:
Make sure its a true "Worldwide7477" release,a sample is always included.
Greets:
To those that support my encodes I would like to say thank you for your support.
LEGION, PRESTiGE, GECKOS, EVO, SPARKS, SAM, JUGGS, Ali, ghostmark & Staff and for those that are not mention thank you.
I'm not with any release groups anymore at this time so if you have your backdoor open and have material such as pre releases or ways to get them please contact me at worldwide7477@gmail.com

Thepiratebay

Complete name : C:UsersAdministratorDownloadsMy TorrentsDraft Day 2014 720p Bluray DTS x264 Worldwide7477Draft Day 2014 720p Bluray DTS x264 Worldwide7477.mkv
Format : Matroska
Format version : Version 4 / Version 2
File size : 3.04 GiB
Duration : 1h 50mn
Overall bit rate mode : Variable
Overall bit rate : 3 955 Kbps
Movie name : Draft Day 2014 720p Bluray DTS x264 Worldwide7477
Encoded date : UTC 2014-08-22 15:36:04
Writing application : mkvmerge v7.0.0 ('Where We Going') 64bit built on Jun 9 2014 15:16:27
Video
ID : 1
Format : AVC
Format/Info : Advanced Video Codec
Format profile : High@L4.1
Format settings, CABAC : Yes
Format settings, ReFrames : 3 frames
Codec ID : V_MPEG4/ISO/AVC
Duration : 1h 50mn
Bit rate mode : Variable
Bit rate : 3 199 Kbps
Maximum bit rate : 14.0 Mbps
Width : 1 280 pixels
Height : 528 pixels
Display aspect ratio : 2.40:1
Frame rate mode : Constant
Frame rate : 23.976 fps
Color space : YUV
Chroma subsampling : 4:2:0
Bit depth : 8 bits
Scan type : Progressive
Bits/(Pixel*Frame) : 0.197
Stream size : 2.40 GiB (79%)
Title : Draft Day 2014 720p Bluray DTS x264 Worldwide7477
Language : English
Default : Yes
Forced : No
Audio
ID : 2
Format : DTS
Format/Info : Digital Theater Systems
Mode : 16
Format settings, Endianness : Big
Codec ID : A_DTS
Duration : 1h 50mn
Bit rate mode : Constant
Bit rate : 755 Kbps
Channel(s) : 6 channels
Channel positions : Front: L C R, Side: L R, LFE
Sampling rate : 48.0 KHz
Bit depth : 24 bits
Compression mode : Lossy
Stream size : 594 MiB (19%)
Title : Worldwide7477 (DTS)
Language : English
Default : Yes
Forced : No
Text #1
ID : 3
Format : UTF-8
Codec ID : S_TEXT/UTF8
Codec ID/Info : UTF-8 Plain Text
Title : Worldwide7477
Language : English
Default : Yes
Forced : No
Text #2
ID : 4
Format : UTF-8
Codec ID : S_TEXT/UTF8
Codec ID/Info : UTF-8 Plain Text
Title : Worldwide7477
Language : English
Default : No
Forced : No
Text #3
ID : 5
Format : UTF-8
Codec ID : S_TEXT/UTF8
Codec ID/Info : UTF-8 Plain Text
Title : Worldwide7477
Language : Spanish
Default : No
Forced : No
Menu
00:00:00.000 : :Chapter 1
00:05:00.000 : :Chapter 2
00:10:00.000 : :Chapter 3
00:15:00.000 : :Chapter 4
00:20:00.000 : :Chapter 5
00:25:00.000 : :Chapter 6
00:30:00.000 : :Chapter 7
00:35:00.000 : :Chapter 8
00:40:00.000 : :Chapter 9
00:45:00.000 : :Chapter 10
00:50:00.000 : :Chapter 11
00:55:00.000 : :Chapter 12
01:00:00.000 : :Chapter 13
01:05:00.000 : :Chapter 14
01:10:00.000 : :Chapter 15
01:15:00.000 : :Chapter 16
01:20:00.000 : :Chapter 17
01:25:00.000 : :Chapter 18
01:30:00.000 : :Chapter 19
01:35:00.000 : :Chapter 20
01:40:00.000 : :Chapter 21
01:45:00.000 : :Chapter 22
01:50:00.000 : :Chapter 23

Kickasstorrents

Movie: Draft Day
IMDB link: 2223990
Detected quality: 720p
IMDB rating: 7.0 (1,562 votes)
Genres: drama, sport
File Size: 3.04 GiB
Release Title: Draft Day 2014 720p Bluray DTS x264 Worldwide7477
Certification: Rated - R
Release Date: 11 April 2014
Audio language: English
SubTitles: English | English | Spanish
Duration: 1h 50mn
Overall Bitrate: 3 955 Kbps
Encoding Type: MKV
Encoder: Worldwide7477
Storyline:
At the NFL Draft, general manager Sonny Weaver has the opportunity to rebuild his team when he trades for the number one pick. He must decide what he's willing to sacrifice on a life-changing day for a few hundred young men with NFL dreams.
.:General Info:.
Genre: Drama | Sport
Imdb Url: http://www.imdb.com/title/tt2223990
Rating: 6.8/10
Cast:
Kevin Costner, Chadwick Boseman, Jennifer Garner
.:Video Info:.
Video Codec Type: x264
Source: Blu-Ray
Container: V_MPEG4/ISO/AVC
Format: Matroska
Resolution: 1280 X 528 pixels
Aspect ratio(AR): 2.40:1
Video Bitrate: 3 199 Kbps
Frame Rate: 23.976 fps
.:Audio Info:.
Audio Codec: DTS
Bitrate: 755 Kbps
Channel Count: 6 channels (Front: L C R, Side: L R, LFE)
FootNote(s):
Recommends:
Make sure its a true "Worldwide7477" release,a sample is always included.
Greets:
To those that support my encodes I would like to say thank you for your support.
LEGION, PRESTiGE, GECKOS, EVO, SPARKS, SAM, JUGGS, Ali, ghostmark & Staff and for those that are not mention thank you.
I'm not with any release groups anymore at this time so if you have your backdoor open and have material such as pre releases or ways to get them please contact me at worldwide7477@gmail.com
_scq.push();
Related Torrents
torrent name
size
files
age
seed
leech
A Grande Escolha / Draft Day (2014) 1080p 5.1 BluRay Dual Áudio - Português / English |
Posted by sawlyn in Movies > Highres Movies
1.99 GB
5
2 weeks
196
39
6
Draft Day 2014 1080p BluRay X264-AMIABLE
in Movies > Highres Movies
7.69 GB
5
1 month
162
45
3
Draft Day (2014) 1080p BlurayRip Dual Audio: (Español Latino + Ingles + Sub.)
Posted by audiolatinot in Movies > Highres Movies
2.41 GB
3
1 month
111
12
4
Draft Day 2014 1080p BluRay x264 anoXmous
Posted by anoXmous in Movies > Highres Movies
2.14 GB
2
1 month
71
42
Draft Day 2014 720p BluRay x264 AAC - Ozlem
Posted by megaradon in Movies > Highres Movies
830.92 MB
1
1 month
55
18
Sharing Widget
Download torrent
3.08 GB
seeders:21
leechers:19

Files (6):

  • Draft Day 2014 720p Bluray DTS x264 Worldwide7477.mkv (3 GB)
  • Sample / Sample.mkv (46.7 MB)
  • Subs / Draft Day 2014 720p Bluray DTS x264 Worldwide7477 Subs.rar (145 KB)
  • Draft Day 2014 720p Bluray DTS x264 Worldwide7477.nfo (4.9 KB)
  • Torrent Downloaded From / Torrent downloaded from TriCityTorrent.com.txt (254 B)
  • Torrent Downloaded From / Torrent downloaded from demonoid.ph.txt (46 B)

show full list …

collapse the list

Torrof does not host any content on its servers, but allows his users to search existing torrents for "Draft Day 2014 720p Bluray DTS x264 Worldwide7477" and download it for free from most famous Torrent Trackers: #Btscene, #Thepiratebay, #Kickasstorrents, #Sumotorrent, #Torrentbit, #Limetorrents, #Monova