Guardians Of The Galaxy 4K (2014) [Bdrip 2160P X264 By Ale13 Ac3][Lektor I Napisy Pl/eng][Eng]

Guardians of the Galaxy 4K (2014) [BDRip 2160p x264 by alE13 AC3][Lektor i Napisy PL/Eng][Eng] Video / Sci-Fi

  • 14.1 GB
  • 0 S
  • 0 L
  • Sep 2016

Download fast (14 free days): Download torrent Magnet link

Description(s):

Btscene

http://www.filmweb.pl/film/Stra%C5%BCnicy+Galaktyki-2014-594357
http://www.imdb.com/title/tt2015381/
reżyseria: James Gunn
scenariusz: James Gunn,Nicole Perlman
gatunek: Akcja,Sci-Fi
produkcja: USA
premiera: 21-07-2014
muzyka: Tyler Bates
zdjęcia: Ben Davis
czas: 2h 0 min
opis:
A group of intergalactic criminals are forced to work together to stop a fanatical warrior from taking control
of the universe.
Zuchwały awanturnik Peter Quill kradnie tajemniczy artefakt będący obiektem pożądania złego i potężnego Ronana,
którego ambicje zagrażają całemu wszechświatowi.
obsada:
Chris Pratt, Vin Diesel, Bradley Cooper
dane techniczne:
Guardians of the Galaxy 4K (2014)-alE13.mkv
Format : Matroska
Format version : Version 4 / Version 2
File size : 14.0 GiB
Duration : 2 h 0 min
Overall bit rate : 16.6 Mb/s
Movie name : Guardians of the Galaxy 4K (2014)-alE13
Encoded date : UTC 2016-09-05 16:07:28
Writing application : mkvmerge v8.1.0 ('Psychedelic Postcard') 64bit
Writing library : libebml v1.3.1 + libmatroska v1.4.2
Cover : Yes
Attachments : cover.jpg
Video
ID : 1
Format : AVC
Format/Info : Advanced Video Codec
Format profile : Main@L5.1
Format settings, CABAC : Yes
Format settings, ReFrames : 1 frame
Codec ID : V_MPEG4/ISO/AVC
Duration : 2 h 0 min
Bit rate : 15.7 Mb/s
Width : 3 840 pixels
Height : 2 160 pixels
Display aspect ratio : 16:9
Frame rate mode : Constant
Frame rate : 23.976 (24000/1001) FPS
Color space : YUV
Chroma subsampling : 4:2:0
Bit depth : 8 bits
Scan type : Progressive
Bits/(Pixel*Frame) : 0.079
Stream size : 13.3 GiB (95%)
Title : Guardians of the Galaxy 4K (2014)-alE13
Writing library : x264 core 142
Default : Yes
Forced : No
Color range : Limited
Color primaries : BT.709
Transfer characteristics : BT.709
Matrix coefficients : BT.709
Audio #1
ID : 2
Format : AC-3
Format/Info : Audio Coding 3
Mode extension : CM (complete main)
Format settings, Endianness : Big
Codec ID : A_AC3
Duration : 2 h 0 min
Bit rate mode : Constant
Bit rate : 640 kb/s
Channel(s) : 6 channels
Channel positions : Front: L C R, Side: L R, LFE
Sampling rate : 48.0 kHz
Frame rate : 31.250 FPS (1536 spf)
Compression mode : Lossy
Stream size : 553 MiB (4%)
Title : Guardians of the Galaxy 4K (2014)-alE13
Language : English
Default : No
Forced : No
Audio #2
ID : 3
Format : AC-3
Format/Info : Audio Coding 3
Mode extension : CM (complete main)
Format settings, Endianness : Big
Codec ID : A_AC3
Duration : 2 h 0 min
Bit rate mode : Constant
Bit rate : 256 kb/s
Channel(s) : 2 channels
Channel positions : Front: L R
Sampling rate : 44.1 kHz
Frame rate : 28.711 FPS (1536 spf)
Compression mode : Lossy
Delay relative to video : 2 s 100 ms
Stream size : 221 MiB (2%)
Title : Guardians of the Galaxy 4K (2014)-alE13
Language : Polish
Default : Yes
Forced : No
Menu
00:00:00.000 : en:(01)00:00:00:000
00:04:05.703 : en:(02)00:04:05:703
00:11:21.831 : en:(03)00:11:21:806
00:15:21.737 : en:(04)00:15:21:712
00:20:54.444 : en:(05)00:20:54:419
00:27:11.237 : en:(06)00:27:11:212
00:33:58.853 : en:(07)00:33:58:828
00:44:28.315 : en:(08)00:44:28:290
00:50:53.033 : en:(09)00:50:53:008
00:55:17.589 : en:(10)00:55:17:564
00:59:45.231 : en:(11)00:59:45:206
01:06:06.946 : en:(12)01:06:06:921
01:14:46.048 : en:(13)01:14:46:023
01:22:20.669 : en:(14)01:22:20:644
01:26:29.751 : en:(15)01:26:29:726
01:30:23.901 : en:(16)01:30:23:876
01:35:58.402 : en:(17)01:35:58:377
01:40:46.774 : en:(18)01:40:46:749
01:47:35.390 : en:(19)01:47:35:365
01:53:16.648 : en:(20)01:53:16:623
02:00:10.853 : en:(21)02:00:10:828

Ahashare

http://www.filmweb.pl/film/Stra%C5%BCnicy+Galaktyki-2014-594357
http://www.imdb.com/title/tt2015381/
reżyseria: James Gunn
scenariusz: James Gunn,Nicole Perlman
gatunek: Akcja,Sci-Fi
produkcja: USA
premiera: 21-07-2014
muzyka: Tyler Bates
zdjęcia: Ben Davis
czas: 2h 0 min
opis:
A group of intergalactic criminals are forced to work together to stop a fanatical warrior from taking control
of the universe.
Zuchwały awanturnik Peter Quill kradnie tajemniczy artefakt będący obiektem pożądania złego i potężnego Ronana,
którego ambicje zagrażają całemu wszechświatowi.
download Guardians of the Galaxy 4K (2014) [BDRip 2160p x264 by alE13 AC3][Lektor i Napisy PL/Eng][Eng]
download Guardians of the Galaxy 4K (2014) [BDRip 2160p x264 by alE13 AC3][Lektor i Napisy PL/Eng][Eng]
download Guardians of the Galaxy 4K (2014) [BDRip 2160p x264 by alE13 AC3][Lektor i Napisy PL/Eng][Eng]
download Guardians of the Galaxy 4K (2014) [BDRip 2160p x264 by alE13 AC3][Lektor i Napisy PL/Eng][Eng]
obsada:
Chris Pratt, Vin Diesel, Bradley Cooper
dane techniczne:
Guardians of the Galaxy 4K (2014)-alE13.mkv
Format : Matroska
Format version : Version 4 / Version 2
File size : 14.0 GiB
Duration : 2 h 0 min
Overall bit rate : 16.6 Mb/s
Movie name : Guardians of the Galaxy 4K (2014)-alE13
Encoded date : UTC 2016-09-05 16:07:28
Writing application : mkvmerge v8.1.0 ('Psychedelic Postcard') 64bit
Writing library : libebml v1.3.1 + libmatroska v1.4.2
Cover : Yes
Attachments : cover.jpg
Video
ID : 1
Format : AVC
Format/Info : Advanced Video Codec
Format profile : Main@L5.1
Format settings, CABAC : Yes
Format settings, ReFrames : 1 frame
Codec ID : V_MPEG4/ISO/AVC
Duration : 2 h 0 min
Bit rate : 15.7 Mb/s
Width : 3 840 pixels
Height : 2 160 pixels
Display aspect ratio : 16:9
Frame rate mode : Constant
Frame rate : 23.976 (24000/1001) FPS
Color space : YUV
Chroma subsampling : 4:2:0
Bit depth : 8 bits
Scan type : Progressive
Bits/(Pixel*Frame) : 0.079
Stream size : 13.3 GiB (95%)
Title : Guardians of the Galaxy 4K (2014)-alE13
Writing library : x264 core 142
Default : Yes
Forced : No
Color range : Limited
Color primaries : BT.709
Transfer characteristics : BT.709
Matrix coefficients : BT.709
Audio #1
ID : 2
Format : AC-3
Format/Info : Audio Coding 3
Mode extension : CM (complete main)
Format settings, Endianness : Big
Codec ID : A_AC3
Duration : 2 h 0 min
Bit rate mode : Constant
Bit rate : 640 kb/s
Channel(s) : 6 channels
Channel positions : Front: L C R, Side: L R, LFE
Sampling rate : 48.0 kHz
Frame rate : 31.250 FPS (1536 spf)
Compression mode : Lossy
Stream size : 553 MiB (4%)
Title : Guardians of the Galaxy 4K (2014)-alE13
Language : English
Default : No
Forced : No
Audio #2
ID : 3
Format : AC-3
Format/Info : Audio Coding 3
Mode extension : CM (complete main)
Format settings, Endianness : Big
Codec ID : A_AC3
Duration : 2 h 0 min
Bit rate mode : Constant
Bit rate : 256 kb/s
Channel(s) : 2 channels
Channel positions : Front: L R
Sampling rate : 44.1 kHz
Frame rate : 28.711 FPS (1536 spf)
Compression mode : Lossy
Delay relative to video : 2 s 100 ms
Stream size : 221 MiB (2%)
Title : Guardians of the Galaxy 4K (2014)-alE13
Language : Polish
Default : Yes
Forced : No
Menu
00:00:00.000 : en01)00:00:00:000
00:04:05.703 : en02)00:04:05:703
00:11:21.831 : en03)00:11:21:806
00:15:21.737 : en04)00:15:21:712
00:20:54.444 : en05)00:20:54:419
00:27:11.237 : en06)00:27:11:212
00:33:58.853 : en07)00:33:58:828
00:44:28.315 : en000:44:28:290
00:50:53.033 : en09)00:50:53:008
00:55:17.589 : en10)00:55:17:564
00:59:45.231 : en11)00:59:45:206
01:06:06.946 : en12)01:06:06:921
01:14:46.048 : en13)01:14:46:023
01:22:20.669 : en14)01:22:20:644
01:26:29.751 : en15)01:26:29:726
01:30:23.901 : en16)01:30:23:876
01:35:58.402 : en17)01:35:58:377
01:40:46.774 : en101:40:46:749
01:47:35.390 : en19)01:47:35:365
01:53:16.648 : en20)01:53:16:623
02:00:10.853 : en21)02:00:10:828

Files (12):

  • info / cover.jpg (587 KB)
  • info / 2.jpg (548 KB)
  • info / cover 2.jpg (164 KB)
  • info / Nostalgie.jpg (138 KB)
  • info / Torrent downloaded from alE13 torrents at BTScene.org.txt (120 B)
  • info / Torrent downloaded from demonoid.pw.txt (46 B)
  • info / Torrent downloaded from - www.aletorrenty.pl (43 B)
  • subtitles / Guardians of the Galaxy 4K (2014)-alE13.rar (62.2 KB)
  • Guardians of the Galaxy 4K (2014)-alE13.mkv (14 GB)
  • Sample.mkv (71.1 MB)
  • poster.jpg (130 KB)
  • txt.jpg (105 KB)

show full list …

collapse the list

Torrof does not host any content on its servers, but allows his users to search existing torrents for "Guardians of the Galaxy 4K (2014) [BDRip 2160p x264 by alE13 AC3][Lektor i Napisy PL/Eng][Eng]" and download it for free from most famous Torrent Trackers: #Btscene, #Ahashare