Hitchcock.truffaut.2015.bdrip.x264 Lpd[Prime]

Hitchcock.truffaut.2015.bdrip.x264-lpd[prime] Video / BD / HD / X264

  • 606 MB
  • 18 S
  • 2 L
  • Jan 2017

Download fast (14 free days): Download torrent Magnet link

Description(s):

Ahashare

Hitchcock.Truffaut.2015.BDRip.x264-LPD
ImDb: http://www.imdb.com/title/tt3748512
Complete name : hitchcock.truffaut.2015.bdrip.x264-lpd.mkv
Format : Matroska
Format version : Version 4 / Version 2
File size : 606 MiB
Duration : 1 h 20 min
Overall bit rate : 1 053 kb/s
Encoded date : UTC 2017-01-11 01:28:20
Writing application : mkvmerge v8.6.1 ('Flying') 64bit
Writing library : libebml v1.3.3 + libmatroska v1.4.4
Video
ID : 1
Format : AVC
Format/Info : Advanced Video Codec
Format profile : High@L3.1
Format settings, CABAC : Yes
Format settings, ReFrames : 5 frames
Codec ID : V_MPEG4/ISO/AVC
Duration : 1 h 20 min
Bit rate : 939 kb/s
Width : 720 pixels
Height : 406 pixels
Display aspect ratio : 16:9
Frame rate mode : Constant
Frame rate : 23.976 FPS
Color space : YUV
Chroma subsampling : 4:2:0
Bit depth : 8 bits
Scan type : Progressive
Bits/(Pixel*Frame) : 0.134
Stream size : 540 MiB (89%)
Writing library : x264 core 148 r2705 3f5ed56
Encoding settings : cabac=1 / ref=5 / deblock=1:-2:-2 / analyse=0x3:0x113 / me=umh / subme=8 / psy=1 / psy_rd=0.80:0.00 / mixed_ref=1 / me_range=16 / chroma_me=1 / trellis=1 / 8x8dct=1 / cqm=0 / deadzone=21,11 / fast_pskip=1 / chroma_qp_offset=-2 / threads=12 / lookahead_threads=2 / sliced_threads=0 / nr=0 / decimate=1 / interlaced=0 / bluray_compat=0 / constrained_intra=0 / bframes=3 / b_pyramid=2 / b_adapt=2 / b_bias=0 / direct=3 / weightb=1 / open_gop=0 / weightp=2 / keyint=250 / keyint_min=23 / scenecut=40 / intra_refresh=0 / rc_lookahead=50 / rc=crf / mbtree=1 / crf=19.0 / qcomp=0.60 / qpmin=0 / qpmax=69 / qpstep=4 / ip_ratio=1.40 / aq=1:1.00
Language : English
Default : Yes
Forced : No
Color range : Limited
Matrix coefficients : BT.709
Audio
ID : 2
Format : AAC
Format/Info : Advanced Audio Codec
Format profile : LC
Codec ID : A_AAC
Duration : 1 h 20 min
Bit rate : 113 kb/s
Channel(s) : 2 channels
Channel positions : Front: L R
Sampling rate : 48.0 kHz
Frame rate : 46.875 FPS (1024 spf)
Compression mode : Lossy
Delay relative to video : 9 ms
Stream size : 64.8 MiB (11%)
Language : English
Default : Yes
Forced : No
Menu
00:00:00.000 : en:00:00:00.000
00:05:14.773 : en:00:05:14.773
00:08:07.028 : en:00:08:07.028
00:12:21.199 : en:00:12:21.199
00:16:27.403 : en:00:16:27.403
00:21:47.681 : en:00:21:47.681
00:24:54.618 : en:00:24:54.618
00:27:51.295 : en:00:27:51.295
00:32:10.637 : en:00:32:10.637
00:35:38.845 : en:00:35:38.845
00:41:55.763 : en:00:41:55.763
00:46:26.283 : en:00:46:26.283
00:50:59.932 : en:00:50:59.932
00:54:13.750 : en:00:54:13.750
00:57:44.378 : en:00:57:44.378
01:01:05.829 : en:01:01:05.829
01:04:37.916 : en:01:04:37.916
01:09:25.953 : en:01:09:25.953
01:12:39.814 : en:01:12:39.814
01:17:57.673 : en:01:17:57.673
Click Image To View Full Size
Click To View Screenshot
Click To View Screenshot
Click To View Screenshot

GlodlsTo

Hitchcock.Truffaut.2015.BDRip.x264-LPD
ImDb: http://www.imdb.com/title/tt3748512
Complete name : hitchcock.truffaut.2015.bdrip.x264-lpd.mkv
Format : Matroska
Format version : Version 4 / Version 2
File size : 606 MiB
Duration : 1 h 20 min
Overall bit rate : 1 053 kb/s
Encoded date : UTC 2017-01-11 01:28:20
Writing application : mkvmerge v8.6.1 ('Flying') 64bit
Writing library : libebml v1.3.3 + libmatroska v1.4.4
Video
ID : 1
Format : AVC
Format/Info : Advanced Video Codec
Format profile : /* */
Format settings, CABAC : Yes
Format settings, ReFrames : 5 frames
Codec ID : V_MPEG4/ISO/AVC
Duration : 1 h 20 min
Bit rate : 939 kb/s
Width : 720 pixels
Height : 406 pixels
Display aspect ratio : 16:9
Frame rate mode : Constant
Frame rate : 23.976 FPS
Color space : YUV
Chroma subsampling : 4:2:0
Bit depth : 8 bits
Scan type : Progressive
Bits/(Pixel*Frame) : 0.134
Stream size : 540 MiB (89%)
Writing library : x264 core 148 r2705 3f5ed56
Encoding settings : cabac=1 / ref=5 / deblock=1:-2:-2 / analyse=0x3:0x113 / me=umh / subme=8 / psy=1 / psy_rd=0.80:0.00 / mixed_ref=1 / me_range=16 / chroma_me=1 / trellis=1 / 8x8dct=1 / cqm=0 / deadzone=21,11 / fast_pskip=1 / chroma_qp_offset=-2 / threads=12 / lookahead_threads=2 / sliced_threads=0 / nr=0 / decimate=1 / interlaced=0 / bluray_compat=0 / constrained_intra=0 / bframes=3 / b_pyramid=2 / b_adapt=2 / b_bias=0 / direct=3 / weightb=1 / open_gop=0 / weightp=2 / keyint=250 / keyint_min=23 / scenecut=40 / intra_refresh=0 / rc_lookahead=50 / rc=crf / mbtree=1 / crf=19.0 / qcomp=0.60 / qpmin=0 / qpmax=69 / qpstep=4 / ip_ratio=1.40 / aq=1:1.00
Language : English
Default : Yes
Forced : No
Color range : Limited
Matrix coefficients : BT.709
Audio
ID : 2
Format : AAC
Format/Info : Advanced Audio Codec
Format profile : LC
Codec ID : A_AAC
Duration : 1 h 20 min
Bit rate : 113 kb/s
Channel(s) : 2 channels
Channel positions : Front: L R
Sampling rate : 48.0 kHz
Frame rate : 46.875 FPS (1024 spf)
Compression mode : Lossy
Delay relative to video : 9 ms
Stream size : 64.8 MiB (11%)
Language : English
Default : Yes
Forced : No
Menu
00:00:00.000 : en:00:00:00.000
00:05:14.773 : en:00:05:14.773
00:08:07.028 : en:00:08:07.028
00:12:21.199 : en:00:12:21.199
00:16:27.403 : en:00:16:27.403
00:21:47.681 : en:00:21:47.681
00:24:54.618 : en:00:24:54.618
00:27:51.295 : en:00:27:51.295
00:32:10.637 : en:00:32:10.637
00:35:38.845 : en:00:35:38.845
00:41:55.763 : en:00:41:55.763
00:46:26.283 : en:00:46:26.283
00:50:59.932 : en:00:50:59.932
00:54:13.750 : en:00:54:13.750
00:57:44.378 : en:00:57:44.378
01:01:05.829 : en:01:01:05.829
01:04:37.916 : en:01:04:37.916
01:09:25.953 : en:01:09:25.953
01:12:39.814 : en:01:12:39.814
01:17:57.673 : en:01:17:57.673
Click Image To View Full Size
Click To View Screenshot
Click To View Screenshot
Click To View Screenshot

Torrentbit

Hitchcock.Truffaut.2015.BDRip.x264-LPDImDb: http://www.imdb.com/title/tt3748512Complete name : hitchcock.truffaut.2015.bdrip.x264-lpd.mkvFormat : MatroskaFormat version : Version 4 / Version 2File size : 606 MiBDuration : 1 h 20 minOverall bit rate : 1 053 kb/sEncoded date : UTC 2017-01-11 01:28:20Writing application : mkvmerge v8.6.1 ('Flying') 64bitWriting library : libebml v1.3.3 + libmatroska v1.4.4VideoID : 1Format : AVCFormat/Info : Advanced Video CodecFormat profile : /* */Format settings, CABAC : YesFormat settings, ReFrames : 5 framesCodec ID : V_MPEG4/ISO/AVCDuration : 1 h 20 minBit rate : 939 kb/sWidth : 720 pixelsHeight : 406 pixelsDisplay aspect ratio : 16:9Frame rate mode : ConstantFrame rate : 23.976 FPSColor space : YUVChroma subsampling : 4:2:0Bit depth : 8 bitsScan type : ProgressiveBits/(Pixel*Frame) : 0.134Stream size : 540 MiB (89%)Writing library : x264 core 148 r2705 3f5ed56Encoding settings : cabac=1 / ref=5 / deblock=1:-2:-2 / analyse=0x3:0x113 / me=umh / subme=8 / psy=1 / psy_rd=0.80:0.00 / mixed_ref=1 / me_range=16 / chroma_me=1 / trellis=1 / 8x8dct=1 / cqm=0 / deadzone=21,11 / fast_pskip=1 / chroma_qp_offset=-2 / threads=12 / lookahead_threads=2 / sliced_threads=0 / nr=0 / decimate=1 / interlaced=0 / bluray_compat=0 / constrained_intra=0 / bframes=3 / b_pyramid=2 / b_adapt=2 / b_bias=0 / direct=3 / weightb=1 / open_gop=0 / weightp=2 / keyint=250 / keyint_min=23 / scenecut=40 / intra_refresh=0 / rc_lookahead=50 / rc=crf / mbtree=1 / crf=19.0 / qcomp=0.60 / qpmin=0 / qpmax=69 / qpstep=4 / ip_ratio=1.40 / aq=1:1.00Language : EnglishDefault : YesForced : NoColor range : LimitedMatrix coefficients : BT.709AudioID : 2Format : AACFormat/Info : Advanced Audio CodecFormat profile : LCCodec ID : A_AACDuration : 1 h 20 minBit rate : 113 kb/sChannel(s) : 2 channelsChannel positions : Front: L RSampling rate : 48.0 kHzFrame rate : 46.875 FPS (1024 spf)Compression mode : LossyDelay relative to video : 9 msStream size : 64.8 MiB (11%)Language : EnglishDefault : YesForced : NoMenu00:00:00.000 : en:00:00:00.00000:05:14.773 : en:00:05:14.77300:08:07.028 : en:00:08:07.02800:12:21.199 : en:00:12:21.19900:16:27.403 : en:00:16:27.40300:21:47.681 : en:00:21:47.68100:24:54.618 : en:00:24:54.61800:27:51.295 : en:00:27:51.29500:32:10.637 : en:00:32:10.63700:35:38.845 : en:00:35:38.84500:41:55.763 : en:00:41:55.76300:46:26.283 : en:00:46:26.28300:50:59.932 : en:00:50:59.93200:54:13.750 : en:00:54:13.75000:57:44.378 : en:00:57:44.37801:01:05.829 : en:01:01:05.82901:04:37.916 : en:01:04:37.91601:09:25.953 : en:01:09:25.95301:12:39.814 : en:01:12:39.81401:17:57.673 : en:01:17:57.673Click Image To View Full SizeClick To View Screenshot Click To View Screenshot Click To View Screenshot

Files (5):

  • Please Support!! Read More!!!.txt (232 B)
  • Torrent Downloaded From 1337x.to.txt (69 B)
  • Torrent Downloaded From ExtraTorrent.cc.txt (446 B)
  • Torrent downloaded from AhaShare.com.txt (59 B)
  • hitchcock.truffaut.2015.bdrip.x264-lpd[PRiME].mkv (606 MB)
Torrof does not host any content on its servers, but allows his users to search existing torrents for "Hitchcock.truffaut.2015.bdrip.x264-lpd[prime]" and download it for free from most famous Torrent Trackers: #Ahashare, #GlodlsTo, #Torrentbit, #Limetorrents, #Torrentroom, #Yourbittorrent, #Seedpeer