Inferno 2016 720P Bdrip 60Fps Sonda

Inferno 2016 720p BDRip 60FPS Sonda Video / BD / HD / X264

  • 9.5 GB
  • 9 S
  • 8 L
  • Jan 2017

Download fast (14 free days): Download torrent Magnet link

Description(s):

Ahashare

download Inferno 2016 720p BDRip 60FPS Sonda
Inferno *2016* (60FPS) 720p.DTS 5.1.BDRip.Sonda
===================================
gatunek: Thriller
produkcja: Japonia,Turcja,USA,Węgry
premiera: 14 października 2016 (Polska) 12 października 2016 (świat)
reżyseria: Ron Howard
scenariusz: David Koepp
http://www.imdb.com/title/tt3062096/
Obsada:
Tom Hanks ... Robert Langdon
Felicity Jones ... Sienna Brooks
Omar Sy ... Christoph Bouchard
Irrfan Khan ... Harry Sims
Sidse Babett Knudsen ... Elizabeth Sinskey
Ben Foster ... Bertrand Zobrist
Ana Ularu ... Vayentha
Ida Darvish ... Marta Alvarez
Opis:
Supertrio: Tom Hanks, Ron Howard i Dan Brown przedstawia ekranizację najlepiej sprzedającej się książki 2013 roku - "Inferno".
Światowej sławy profesor w dziedzinie symboliki Robert Langdon (dwukrotny laureat Oscara Tom Hanks) śladami poematu Dantego usiłuje rozwikłać zagadkę symbolu, który znajduje w marynarce, kiedy budzi się - pogrążony w amnezji - w jednym z włoskich szpitali. Będzie to najtrudniejsze zadanie w karierze Langdona, na którego zewsząd czeka niebezpieczeństwo.
Storyline:
Academy Award® winner Ron Howard returns to direct the latest bestseller in Dan Brown's (Da Vinci Code) billion-dollar Robert Langdon series, Inferno, which finds the famous symbologist (again played by Tom Hanks) on a trail of clues tied to the great Dante himself. When Langdon wakes up in an Italian hospital with amnesia, he teams up with Sienna Brooks (Felicity Jones), a doctor he hopes will help him recover his memories. Together, they race across Europe and against the clock to stop a madman from unleashing a global virus that would wipe out half of the world's population.
Screenshot:
download Inferno 2016 720p BDRip 60FPS Sonda
download Inferno 2016 720p BDRip 60FPS Sonda
download Inferno 2016 720p BDRip 60FPS Sonda
download Inferno 2016 720p BDRip 60FPS Sonda
Dane techniczne:
General
Format : Matroska
Format version : Version 2
File size : 9.49 GiB
Duration : 2h 1mn
Overall bit rate : 11.2 Mbps
Movie name : Inferno.2016.720p.BDRip.60FPS.Sonda
Encoded date : UTC 2017-01-09 16:35:21
Writing application : mkvmerge v5.7.0 ('The Whirlwind') built on Jul 8 2012 20:08:51
Writing library : libebml v1.2.3 + libmatroska v1.3.0
Video
ID : 1
Format : AVC
Format/Info : Advanced Video Codec
Format profile : High@L4.1
Format settings, CABAC : Yes
Format settings, ReFrames : 6 frames
Codec ID : V_MPEG4/ISO/AVC
Duration : 2h 1mn
Bit rate : 9 000 Kbps
Width : 1 280 pixels
Height : 692 pixels
Display aspect ratio : 1.85:1
Frame rate mode : Constant
Frame rate : 60.000 fps
Original frame rate : 59.940 fps
Color space : YUV
Chroma subsampling : 4:2:0
Bit depth : 8 bits
Scan type : Progressive
Bits/(Pixel*Frame) : 0.169
Stream size : 7.47 GiB (79%)
Title : 60FPS Rip by Sonda
Writing library : x264
Encoding settings : cabac=1 / ref=6 / deblock=1:-1:-1 / rc=2pass
Default : Yes
Forced : No
Audio #1
ID : 2
Format : AC-3
Format/Info : Audio Coding 3
Mode extension : CM (complete main)
Format settings, Endianness : Big
Codec ID : A_AC3
Duration : 2h 1mn
Bit rate mode : Constant
Bit rate : 640 Kbps
Channel count : 6 channels
Channel positions : Front: L C R, Side: L R, LFE
Sampling rate : 48.0 KHz
Bit depth : 16 bits
Compression mode : Lossy
Stream size : 557 MiB (6%)
Title : AC3 5.1 ENG
Language : English
Default : Yes
Forced : Yes
Audio #2
ID : 3
Format : DTS
Format/Info : Digital Theater Systems
Mode : 16
Format settings, Endianness : Big
Codec ID : A_DTS
Duration : 2h 1mn
Bit rate mode : Constant
Bit rate : 1 509 Kbps
Channel count : 6 channels
Channel positions : Front: L C R, Side: L R, LFE
Sampling rate : 48.0 KHz
Bit depth : 16 bits
Compression mode : Lossy
Stream size : 1.28 GiB (14%)
Title : DTS 5.1 ENG
Language : English
Default : No
Forced : No
Text #1
ID : 4
Format : UTF-8
Codec ID : S_TEXT/UTF8
Codec ID/Info : UTF-8 Plain Text
Title : napisy PL.srt
Language : Polish
Default : Yes
Forced : Yes
Text #2
ID : 5
Format : UTF-8
Codec ID : S_TEXT/UTF8
Codec ID/Info : UTF-8 Plain Text
Title : napisy ENG.srt
Language : English
Default : No
Forced : No
Text #3
ID : 6
Format : PGS
Muxing mode : zlib
Codec ID : S_HDMV/PGS
Codec ID/Info : The same subtitle format used on BDs/HD-DVDs
Title : napisy ENG Bluray
Language : English
Default : No
Forced : No
Source:
A/V- Inferno (2016) 1080p BD-Remux- HDCLUB
Thanks - Sonda

Torrentbit

[ Inferno *2016* (60FPS) 720p.DTS 5.1.BDRip.Sonda =================================== gatunek: Thriller produkcja: Japonia,Turcja,USA,Węgry premiera: 14 października 2016 (Polska) 12 października 2016 (świat) reżyseria: Ron Howard scenariusz: David Koepp http://www.imdb.com/title/tt3062096/ Obsada: Tom Hanks ... Robert Langdon Felicity Jones ... Sienna Brooks Omar Sy ... Christoph Bouchard Irrfan Khan ... Harry Sims Sidse Babett Knudsen ... Elizabeth Sinskey Ben Foster ... Bertrand Zobrist Ana Ularu ... Vayentha Ida Darvish ... Marta Alvarez Opis: Supertrio: Tom Hanks, Ron Howard i Dan Brown przedstawia ekranizację najlepiej sprzedającej się książki 2013 roku - "Inferno". Światowej sławy profesor w dziedzinie symboliki Robert Langdon (dwukrotny laureat Oscara Tom Hanks) śladami poematu Dantego usiłuje rozwikłać zagadkę symbolu, który znajduje w marynarce, kiedy budzi się - pogrążony w amnezji - w jednym z włoskich szpitali. Będzie to najtrudniejsze zadanie w karierze Langdona, na którego zewsząd czeka niebezpieczeństwo. Storyline: Academy Award® winner Ron Howard returns to direct the latest bestseller in Dan Brown's (Da Vinci Code) billion-dollar Robert Langdon series, Inferno, which finds the famous symbologist (again played by Tom Hanks) on a trail of clues tied to the great Dante himself. When Langdon wakes up in an Italian hospital with amnesia, he teams up with Sienna Brooks (Felicity Jones), a doctor he hopes will help him recover his memories. Together, they race across Europe and against the clock to stop a madman from unleashing a global virus that would wipe out half of the world's population. Screenshot: Dane techniczne: General Format : Matroska Format version : Version 2 File size : 9.49 GiB Duration : 2h 1mn Overall bit rate : 11.2 Mbps Movie name : Inferno.2016.720p.BDRip.60FPS.Sonda Encoded date : UTC 2017-01-09 16:35:21 Writing application : mkvmerge v5.7.0 ('The Whirlwind') built on Jul 8 2012 20:08:51 Writing library : libebml v1.2.3 + libmatroska v1.3.0 Video ID : 1 Format : AVC Format/Info : Advanced Video Codec Format profile : /* */ Format settings, CABAC : Yes Format settings, ReFrames : 6 frames Codec ID : V_MPEG4/ISO/AVC Duration : 2h 1mn Bit rate : 9 000 Kbps Width : 1 280 pixels Height : 692 pixels Display aspect ratio : 1.85:1 Frame rate mode : Constant Frame rate : 60.000 fps Original frame rate : 59.940 fps Color space : YUV Chroma subsampling : 4:2:0 Bit depth : 8 bits Scan type : Progressive Bits/(Pixel*Frame) : 0.169 Stream size : 7.47 GiB (79%) Title : 60FPS Rip by Sonda Writing library : x264 Encoding settings : cabac=1 / ref=6 / deblock=1:-1:-1 / rc=2pass Default : Yes Forced : No Audio #1 ID : 2 Format : AC-3 Format/Info : Audio Coding 3 Mode extension : CM (complete main) Format settings, Endianness : Big Codec ID : A_AC3 Duration : 2h 1mn Bit rate mode : Constant Bit rate : 640 Kbps Channel count : 6 channels Channel positions : Front: L C R, Side: L R, LFE Sampling rate : 48.0 KHz Bit depth : 16 bits Compression mode : Lossy Stream size : 557 MiB (6%) Title : AC3 5.1 ENG Language : English Default : Yes Forced : Yes Audio #2 ID : 3 Format : DTS Format/Info : Digital Theater Systems Mode : 16 Format settings, Endianness : Big Codec ID : A_DTS Duration : 2h 1mn Bit rate mode : Constant Bit rate : 1 509 Kbps Channel count : 6 channels Channel positions : Front: L C R, Side: L R, LFE Sampling rate : 48.0 KHz Bit depth : 16 bits Compression mode : Lossy Stream size : 1.28 GiB (14%) Title : DTS 5.1 ENG Language : English Default : No Forced : No Text #1 ID : 4 Format : UTF-8 Codec ID : S_TEXT/UTF8 Codec ID/Info : UTF-8 Plain Text Title : napisy PL.srt Language : Polish Default : Yes Forced : Yes Text #2 ID : 5 Format : UTF-8 Codec ID : S_TEXT/UTF8 Codec ID/Info : UTF-8 Plain Text Title : napisy ENG.srt Language : English Default : No Forced : No Text #3 ID : 6 Format : PGS Muxing mode : zlib Codec ID : S_HDMV/PGS Codec ID/Info : The same subtitle format used on BDs/HD-DVDs Title : napisy ENG Bluray Language : English Default : No Forced : No Source: A/V- Inferno (2016) 1080p BD-Remux- HDCLUB Thanks - Sonda

Limetorrents

Movies : Thriller : HD 720p : English
Inferno *2016* (60FPS) 720p.DTS
5.1.BDRip.Sonda===================================gatunek: Thrillerprodukcja:
Japonia,Turcja,USA,W?grypremiera: 14 pa?dziernika 2016 (Polska) 12 pa?dziernika 2016 (?wiat)re?yseria: Ron
Howardscenariusz: David Koepphttp://www.imdb.com/title/tt3062096/Obsada:Tom
Hanks ... Robert Langdon Felicity Jones ... Sienna Brooks Omar Sy ... Christoph Bouchard Irrfan Khan
... Harry Sims Sidse Babett Knudsen ... Elizabeth Sinskey Ben Foster ... Bertrand Zobrist Ana Ularu
... Vayentha Ida Darvish ... Marta AlvarezOpis:Supertrio: Tom Hanks, Ron Howard i Dan
Brown przedstawia ekranizacj? najlepiej sprzedaj?cej si? ksi??ki 2013 roku - "Inferno". ?wiatowej s?awy
profesor w dziedzinie symboliki Robert Langdon (dwukrotny laureat Oscara Tom Hanks) ?ladami poematu Dantego usi?uje
rozwik?a? zagadk? symbolu, który znajduje w marynarce, kiedy budzi si? - pogr??ony w amnezji - w jednym z w?oskich
szpitali. B?dzie to najtrudniejsze zadanie w karierze Langdona, na którego zewsz?d czeka niebezpiecze?stwo.Storyline:Academy Award® winner Ron Howard returns to direct the latest bestseller in Dan Brown's (Da
Vinci Code) billion-dollar Robert Langdon series, Inferno, which finds the famous symbologist (again played by Tom
Hanks) on a trail of clues tied to the great Dante himself. When Langdon wakes up in an Italian hospital with amnesia,
he teams up with Sienna Brooks (Felicity Jones), a doctor he hopes will help him recover his memories. Together, they
race across Europe and against the clock to stop a madman from unleashing a global virus that would wipe out half of the
world's population.Screenshot: Dane techniczne:GeneralFormat : MatroskaFormat version
: Version 2File size : 9.49 GiBDuration
: 2h 1mnOverall bit rate : 11.2 MbpsMovie name
: Inferno.2016.720p.BDRip.60FPS.SondaEncoded date : UTC 2017-01-09
16:35:21Writing application : mkvmerge v5.7.0 ('The Whirlwind') built on Jul 8 2012
20:08:51Writing library : libebml v1.2.3 + libmatroska v1.3.0VideoID
: 1Format : AVCFormat/Info
: Advanced Video CodecFormat profile : /* */Format settings, CABAC : YesFormat settings, ReFrames : 6 framesCodec ID
: V_MPEG4/ISO/AVCDuration : 2h 1mnBit rate
: 9 000 KbpsWidth : 1 280 pixelsHeight
: 692 pixelsDisplay aspect ratio : 1.85:1Frame rate mode
: ConstantFrame rate : 60.000 fpsOriginal frame rate
: 59.940 fpsColor space : YUVChroma subsampling
: 4:2:0Bit depth : 8 bitsScan type :
ProgressiveBits/(Pixel*Frame) : 0.169Stream size : 7.47
GiB (79%)Title : 60FPS Rip by SondaWriting library
: x264 Encoding settings : cabac=1 / ref=6 / deblock=1:-1:-1 / rc=2passDefault
: YesForced : NoAudio #1ID
: 2Format : AC-3Format/Info
: Audio Coding 3Mode extension : CM (complete main)Format settings,
Endianness : BigCodec ID : A_AC3Duration
: 2h 1mnBit rate mode : ConstantBit rate
: 640 KbpsChannel count : 6 channelsChannel positions :
Front: L C R, Side: L R, LFESampling rate : 48.0 KHzBit depth
: 16 bitsCompression mode : LossyStream size
: 557 MiB (6%)Title : AC3 5.1 ENGLanguage
: EnglishDefault : YesForced : YesAudio #2ID : 3Format :
DTSFormat/Info : Digital Theater SystemsMode
: 16Format settings, Endianness : BigCodec ID : A_DTSDuration : 2h 1mnBit rate mode : ConstantBit
rate : 1 509 KbpsChannel count : 6 channelsChannel positions : Front: L C R, Side: L R, LFESampling rate
: 48.0 KHzBit depth : 16 bitsCompression mode :
LossyStream size : 1.28 GiB (14%)Title : DTS
5.1 ENGLanguage : EnglishDefault : NoForced : NoText #1ID : 4Format : UTF-8Codec ID : S_TEXT/UTF8Codec ID/Info : UTF-8 Plain TextTitle : napisy
PL.srtLanguage : PolishDefault : YesForced : YesText #2ID : 5Format : UTF-8Codec ID : S_TEXT/UTF8Codec ID/Info : UTF-8 Plain TextTitle : napisy
ENG.srtLanguage : EnglishDefault : NoForced : NoText #3ID : 6Format : PGSMuxing mode : zlibCodec ID
: S_HDMV/PGSCodec ID/Info : The same subtitle format used on
BDs/HD-DVDsTitle : napisy ENG BlurayLanguage
: EnglishDefault : NoForced : NoSource:A/V- Inferno (2016) 1080p BD-Remux- HDCLUBThanks - Sonda
Show Demonoid some love with BitCoin:
1DNoidJdotDyNMm5CxA8XfbgCH8KsCjco3 How to get BitCoins?

Files (6):

  • Inferno.2016.720p.BDRip.60FPS.Sonda.mkv (9.5 GB)
  • Inferno.60FPS.jpg (297 KB)
  • Torrent downloaded from sonda torrents at agusiq-torrents.pl.txt (3.9 KB)
  • AgusiQ Zaprasza.url (125 B)
  • Torrent downloaded from Sonda torrents at AhaShare.com.txt (58 B)
  • Torrent downloaded from sonda000 torrents at demonoid.ph.txt (23 B)

show full list …

collapse the list

Torrof does not host any content on its servers, but allows his users to search existing torrents for "Inferno 2016 720p BDRip 60FPS Sonda" and download it for free from most famous Torrent Trackers: #Ahashare, #Torrentbit, #Limetorrents, #Torrentroom, #Seedpeer, #Yourbittorrent