Lost.and.found.2016.limited.dvdrip.x264 Lpd[Prime]

Lost.And.Found.2016.LiMiTED.DVDRip.x264-LPD[PRiME] Video / BD / HD / X264

  • 608 MB
  • 3 S
  • 1 L
  • Jan 2017

Download fast (14 free days): Download torrent Magnet link

Description(s):

Ahashare

Lost.And.Found.2016.LiMiTED.DVDRip.x264-LPD
ImDb: http://www.imdb.com/title/tt1336600
Complete name : lost.and.found.limited.2016.dvdrip.x264-lpd.mkv
Format : Matroska
Format version : Version 4 / Version 2
File size : 608 MiB
Duration : 1 h 31 min
Overall bit rate : 925 kb/s
Encoded date : UTC 2017-01-10 22:52:42
Writing application : mkvmerge v9.6.0 ('Slave To Your Mind') 64bit
Writing library : libebml v1.3.4 + libmatroska v1.4.5
Video
ID : 2
Format : AVC
Format/Info : Advanced Video Codec
Format profile : High@L3.1
Format settings, CABAC : Yes
Format settings, ReFrames : 5 frames
Codec ID : V_MPEG4/ISO/AVC
Duration : 1 h 31 min
Bit rate : 811 kb/s
Width : 720 pixels
Height : 406 pixels
Display aspect ratio : 16:9
Frame rate mode : Constant
Frame rate : 23.976 (24000/1001) FPS
Color space : YUV
Chroma subsampling : 4:2:0
Bit depth : 8 bits
Scan type : Progressive
Bits/(Pixel*Frame) : 0.116
Stream size : 533 MiB (88%)
Writing library : x264 core 148 r2721 72d53ab
Encoding settings : cabac=1 / ref=5 / deblock=1:0:0 / analyse=0x3:0x113 / me=hex / subme=8 / psy=1 / psy_rd=1.00:0.00 / mixed_ref=1 / me_range=16 / chroma_me=1 / trellis=2 / 8x8dct=1 / cqm=0 / deadzone=21,11 / fast_pskip=1 / chroma_qp_offset=-2 / threads=12 / lookahead_threads=2 / sliced_threads=0 / nr=0 / decimate=1 / interlaced=0 / bluray_compat=0 / constrained_intra=0 / bframes=3 / b_pyramid=2 / b_adapt=1 / b_bias=0 / direct=3 / weightb=1 / open_gop=0 / weightp=2 / keyint=250 / keyint_min=23 / scenecut=40 / intra_refresh=0 / rc_lookahead=50 / rc=crf / mbtree=1 / crf=19.0 / qcomp=0.60 / qpmin=0 / qpmax=69 / qpstep=4 / ip_ratio=1.40 / aq=1:1.00
Language : English
Default : Yes
Forced : No
Audio
ID : 1
Format : AAC
Format/Info : Advanced Audio Codec
Format profile : LC
Codec ID : A_AAC
Duration : 1 h 31 min
Bit rate : 112 kb/s
Channel(s) : 2 channels
Channel positions : Front: L R
Sampling rate : 48.0 kHz
Frame rate : 46.875 FPS (1024 spf)
Compression mode : Lossy
Delay relative to video : 9 ms
Stream size : 73.4 MiB (12%)
Default : Yes
Forced : No
Menu
00:00:00.054 : en:00:00:00.054
Click Image To View Full Size
Click To View Screenshot
Click To View Screenshot
Click To View Screenshot

GlodlsTo

Lost.And.Found.2016.LiMiTED.DVDRip.x264-LPD
ImDb: http://www.imdb.com/title/tt1336600
Complete name : lost.and.found.limited.2016.dvdrip.x264-lpd.mkv
Format : Matroska
Format version : Version 4 / Version 2
File size : 608 MiB
Duration : 1 h 31 min
Overall bit rate : 925 kb/s
Encoded date : UTC 2017-01-10 22:52:42
Writing application : mkvmerge v9.6.0 ('Slave To Your Mind') 64bit
Writing library : libebml v1.3.4 + libmatroska v1.4.5
Video
ID : 2
Format : AVC
Format/Info : Advanced Video Codec
Format profile : /* */
Format settings, CABAC : Yes
Format settings, ReFrames : 5 frames
Codec ID : V_MPEG4/ISO/AVC
Duration : 1 h 31 min
Bit rate : 811 kb/s
Width : 720 pixels
Height : 406 pixels
Display aspect ratio : 16:9
Frame rate mode : Constant
Frame rate : 23.976 (24000/1001) FPS
Color space : YUV
Chroma subsampling : 4:2:0
Bit depth : 8 bits
Scan type : Progressive
Bits/(Pixel*Frame) : 0.116
Stream size : 533 MiB (88%)
Writing library : x264 core 148 r2721 72d53ab
Encoding settings : cabac=1 / ref=5 / deblock=1:0:0 / analyse=0x3:0x113 / me=hex / subme=8 / psy=1 / psy_rd=1.00:0.00 / mixed_ref=1 / me_range=16 / chroma_me=1 / trellis=2 / 8x8dct=1 / cqm=0 / deadzone=21,11 / fast_pskip=1 / chroma_qp_offset=-2 / threads=12 / lookahead_threads=2 / sliced_threads=0 / nr=0 / decimate=1 / interlaced=0 / bluray_compat=0 / constrained_intra=0 / bframes=3 / b_pyramid=2 / b_adapt=1 / b_bias=0 / direct=3 / weightb=1 / open_gop=0 / weightp=2 / keyint=250 / keyint_min=23 / scenecut=40 / intra_refresh=0 / rc_lookahead=50 / rc=crf / mbtree=1 / crf=19.0 / qcomp=0.60 / qpmin=0 / qpmax=69 / qpstep=4 / ip_ratio=1.40 / aq=1:1.00
Language : English
Default : Yes
Forced : No
Audio
ID : 1
Format : AAC
Format/Info : Advanced Audio Codec
Format profile : LC
Codec ID : A_AAC
Duration : 1 h 31 min
Bit rate : 112 kb/s
Channel(s) : 2 channels
Channel positions : Front: L R
Sampling rate : 48.0 kHz
Frame rate : 46.875 FPS (1024 spf)
Compression mode : Lossy
Delay relative to video : 9 ms
Stream size : 73.4 MiB (12%)
Default : Yes
Forced : No
Menu
00:00:00.054 : en:00:00:00.054
Click Image To View Full Size
Click To View Screenshot
Click To View Screenshot
Click To View Screenshot

Torrentbit

Lost.And.Found.2016.LiMiTED.DVDRip.x264-LPDImDb: http://www.imdb.com/title/tt1336600Complete name : lost.and.found.limited.2016.dvdrip.x264-lpd.mkvFormat : MatroskaFormat version : Version 4 / Version 2File size : 608 MiBDuration : 1 h 31 minOverall bit rate : 925 kb/sEncoded date : UTC 2017-01-10 22:52:42Writing application : mkvmerge v9.6.0 ('Slave To Your Mind') 64bitWriting library : libebml v1.3.4 + libmatroska v1.4.5VideoID : 2Format : AVCFormat/Info : Advanced Video CodecFormat profile : /* */Format settings, CABAC : YesFormat settings, ReFrames : 5 framesCodec ID : V_MPEG4/ISO/AVCDuration : 1 h 31 minBit rate : 811 kb/sWidth : 720 pixelsHeight : 406 pixelsDisplay aspect ratio : 16:9Frame rate mode : ConstantFrame rate : 23.976 (24000/1001) FPSColor space : YUVChroma subsampling : 4:2:0Bit depth : 8 bitsScan type : ProgressiveBits/(Pixel*Frame) : 0.116Stream size : 533 MiB (88%)Writing library : x264 core 148 r2721 72d53abEncoding settings : cabac=1 / ref=5 / deblock=1:0:0 / analyse=0x3:0x113 / me=hex / subme=8 / psy=1 / psy_rd=1.00:0.00 / mixed_ref=1 / me_range=16 / chroma_me=1 / trellis=2 / 8x8dct=1 / cqm=0 / deadzone=21,11 / fast_pskip=1 / chroma_qp_offset=-2 / threads=12 / lookahead_threads=2 / sliced_threads=0 / nr=0 / decimate=1 / interlaced=0 / bluray_compat=0 / constrained_intra=0 / bframes=3 / b_pyramid=2 / b_adapt=1 / b_bias=0 / direct=3 / weightb=1 / open_gop=0 / weightp=2 / keyint=250 / keyint_min=23 / scenecut=40 / intra_refresh=0 / rc_lookahead=50 / rc=crf / mbtree=1 / crf=19.0 / qcomp=0.60 / qpmin=0 / qpmax=69 / qpstep=4 / ip_ratio=1.40 / aq=1:1.00Language : EnglishDefault : YesForced : NoAudioID : 1Format : AACFormat/Info : Advanced Audio CodecFormat profile : LCCodec ID : A_AACDuration : 1 h 31 minBit rate : 112 kb/sChannel(s) : 2 channelsChannel positions : Front: L RSampling rate : 48.0 kHzFrame rate : 46.875 FPS (1024 spf)Compression mode : LossyDelay relative to video : 9 msStream size : 73.4 MiB (12%)Default : YesForced : NoMenu00:00:00.054 : en:00:00:00.054Click Image To View Full SizeClick To View Screenshot Click To View Screenshot Click To View Screenshot

Files (5):

  • Please Support!! Read More!!!.txt (232 B)
  • Torrent Downloaded From 1337x.to.txt (69 B)
  • Torrent Downloaded From ExtraTorrent.cc.txt (446 B)
  • Torrent downloaded from AhaShare.com.txt (59 B)
  • lost.and.found.limited.2016.dvdrip.x264-lpd[PRiME].mkv (608 MB)
Torrof does not host any content on its servers, but allows his users to search existing torrents for "Lost.And.Found.2016.LiMiTED.DVDRip.x264-LPD[PRiME]" and download it for free from most famous Torrent Trackers: #Ahashare, #GlodlsTo, #Torrentbit, #Torrentroom, #Limetorrents, #Seedpeer, #Yourbittorrent, #Btscene