Masterminds.2016.720P.bluray.x264.dts Hdchina[Prime]

Masterminds.2016.720p.BluRay.x264.DTS-HDChina[PRiME] Video / BD / HD / X264

  • 4 GB
  • 3 S
  • 2 L
  • Jan 2017

Download fast (14 free days): Download torrent Magnet link

Description(s):

Ahashare

Masterminds.2016.720p.BluRay.x264.DTS-HDChina
ImDb: http://www.imdb.com/title/tt2461150
Complete name : Masterminds.2016.720p.BluRay.x264.DTS-HDChina.mkv
Format : Matroska
Format version : Version 2
File size : 3.98 GiB
Duration : 1 h 34 min
Overall bit rate : 6 024 kb/s
Movie name : Masterminds 2016 720p BluRay x264 DTS-HDChina
Encoded date : UTC 2017-01-10 22:40:12
Writing application : mkvmerge v5.8.0 ('No Sleep / Pillow') built on Sep 2 2012 15:37:04
Writing library : libebml v1.2.3 + libmatroska v1.3.0
Video
ID : 1
Format : AVC
Format/Info : Advanced Video Codec
Format profile : High@L4.1
Format settings, CABAC : Yes
Format settings, ReFrames : 9 frames
Muxing mode : Header stripping
Codec ID : V_MPEG4/ISO/AVC
Duration : 1 h 34 min
Bit rate : 4 500 kb/s
Width : 1 280 pixels
Height : 720 pixels
Display aspect ratio : 16:9
Frame rate mode : Constant
Frame rate : 23.976 (24000/1001) FPS
Color space : YUV
Chroma subsampling : 4:2:0
Bit depth : 8 bits
Scan type : Progressive
Bits/(Pixel*Frame) : 0.204
Stream size : 2.91 GiB (73%)
Title : Medusa @ HDChina
Writing library : x264 core 148 r2665kMod a01e339
Encoding settings : cabac=1 / ref=9 / deblock=1:-3:-3 / analyse=0x3:0x133 / me=umh / subme=11 / psy=1 / fade_compensate=0.00 / psy_rd=1.05:0.00 / mixed_ref=1 / me_range=32 / chroma_me=1 / trellis=2 / 8x8dct=1 / cqm=0 / deadzone=21,11 / fast_pskip=0 / chroma_qp_offset=-2 / threads=22 / lookahead_threads=3 / sliced_threads=0 / nr=0 / decimate=0 / interlaced=0 / bluray_compat=0 / constrained_intra=0 / fgo=0 / bframes=8 / b_pyramid=2 / b_adapt=2 / b_bias=0 / direct=3 / weightb=1 / open_gop=0 / weightp=2 / keyint=240 / keyint_min=24 / scenecut=40 / intra_refresh=0 / rc=2pass / mbtree=0 / bitrate=4500 / ratetol=1.0 / qcomp=0.70 / qpmin=0 / qpmax=69 / qpstep=4 / cplxblur=20.0 / qblur=0.5 / ip_ratio=1.20 / pb_ratio=1.20 / aq=3:0.85
Language : English
Default : Yes
Forced : No
Audio
ID : 2
Format : DTS
Format/Info : Digital Theater Systems
Mode : 16
Format settings, Endianness : Big
Muxing mode : Header stripping
Codec ID : A_DTS
Duration : 1 h 34 min
Bit rate mode : Constant
Bit rate : 1 509 kb/s
Channel(s) : 6 channels
Channel positions : Front: L C R, Side: L R, LFE
Sampling rate : 48.0 kHz
Frame rate : 93.750 FPS (512 spf)
Bit depth : 24 bits
Compression mode : Lossy
Stream size : 1 022 MiB (25%)
Language : English
Default : Yes
Forced : No
Text
ID : 3
Format : PGS
Muxing mode : zlib
Codec ID : S_HDMV/PGS
Codec ID/Info : Picture based subtitle format used on BDs/HD-DVDs
Language : English
Default : Yes
Forced : No
Menu
00:00:00.000 : en:00:00:00.000
00:06:37.188 : en:00:06:37.188
00:10:15.240 : en:00:10:15.240
00:16:56.432 : en:00:16:56.432
00:28:08.353 : en:00:28:08.353
00:31:30.138 : en:00:31:30.138
00:37:39.716 : en:00:37:39.716
00:45:28.476 : en:00:45:28.476
00:50:03.167 : en:00:50:03.167
00:57:30.906 : en:00:57:30.906
01:02:59.609 : en:01:02:59.609
01:07:59.158 : en:01:07:59.158
01:14:12.782 : en:01:14:12.782
01:20:20.024 : en:01:20:20.024
01:23:22.581 : en:01:23:22.581
01:27:25.657 : en:01:27:25.657
Click Image To View Full Size
Click To View Screenshot
Click To View Screenshot
Click To View Screenshot

Torrentbit

Masterminds.2016.720p.BluRay.x264.DTS-HDChinaImDb: http://www.imdb.com/title/tt2461150Complete name : Masterminds.2016.720p.BluRay.x264.DTS-HDChina.mkvFormat : MatroskaFormat version : Version 2File size : 3.98 GiBDuration : 1 h 34 minOverall bit rate : 6 024 kb/sMovie name : Masterminds 2016 720p BluRay x264 DTS-HDChinaEncoded date : UTC 2017-01-10 22:40:12Writing application : mkvmerge v5.8.0 ('No Sleep / Pillow') built on Sep 2 2012 15:37:04Writing library : libebml v1.2.3 + libmatroska v1.3.0VideoID : 1Format : AVCFormat/Info : Advanced Video CodecFormat profile : /* */Format settings, CABAC : YesFormat settings, ReFrames : 9 framesMuxing mode : Header strippingCodec ID : V_MPEG4/ISO/AVCDuration : 1 h 34 minBit rate : 4 500 kb/sWidth : 1 280 pixelsHeight : 720 pixelsDisplay aspect ratio : 16:9Frame rate mode : ConstantFrame rate : 23.976 (24000/1001) FPSColor space : YUVChroma subsampling : 4:2:0Bit depth : 8 bitsScan type : ProgressiveBits/(Pixel*Frame) : 0.204Stream size : 2.91 GiB (73%)Title : Medusa @ HDChinaWriting library : x264 core 148 r2665kMod a01e339Encoding settings : cabac=1 / ref=9 / deblock=1:-3:-3 / analyse=0x3:0x133 / me=umh / subme=11 / psy=1 / fade_compensate=0.00 / psy_rd=1.05:0.00 / mixed_ref=1 / me_range=32 / chroma_me=1 / trellis=2 / 8x8dct=1 / cqm=0 / deadzone=21,11 / fast_pskip=0 / chroma_qp_offset=-2 / threads=22 / lookahead_threads=3 / sliced_threads=0 / nr=0 / decimate=0 / interlaced=0 / bluray_compat=0 / constrained_intra=0 / fgo=0 / bframes=8 / b_pyramid=2 / b_adapt=2 / b_bias=0 / direct=3 / weightb=1 / open_gop=0 / weightp=2 / keyint=240 / keyint_min=24 / scenecut=40 / intra_refresh=0 / rc=2pass / mbtree=0 / bitrate=4500 / ratetol=1.0 / qcomp=0.70 / qpmin=0 / qpmax=69 / qpstep=4 / cplxblur=20.0 / qblur=0.5 / ip_ratio=1.20 / pb_ratio=1.20 / aq=3:0.85Language : EnglishDefault : YesForced : NoAudioID : 2Format : DTSFormat/Info : Digital Theater SystemsMode : 16Format settings, Endianness : BigMuxing mode : Header strippingCodec ID : A_DTSDuration : 1 h 34 minBit rate mode : ConstantBit rate : 1 509 kb/sChannel(s) : 6 channelsChannel positions : Front: L C R, Side: L R, LFESampling rate : 48.0 kHzFrame rate : 93.750 FPS (512 spf)Bit depth : 24 bitsCompression mode : LossyStream size : 1 022 MiB (25%)Language : EnglishDefault : YesForced : NoTextID : 3Format : PGSMuxing mode : zlibCodec ID : S_HDMV/PGSCodec ID/Info : Picture based subtitle format used on BDs/HD-DVDsLanguage : EnglishDefault : YesForced : NoMenu00:00:00.000 : en:00:00:00.00000:06:37.188 : en:00:06:37.18800:10:15.240 : en:00:10:15.24000:16:56.432 : en:00:16:56.43200:28:08.353 : en:00:28:08.35300:31:30.138 : en:00:31:30.13800:37:39.716 : en:00:37:39.71600:45:28.476 : en:00:45:28.47600:50:03.167 : en:00:50:03.16700:57:30.906 : en:00:57:30.90601:02:59.609 : en:01:02:59.60901:07:59.158 : en:01:07:59.15801:14:12.782 : en:01:14:12.78201:20:20.024 : en:01:20:20.02401:23:22.581 : en:01:23:22.58101:27:25.657 : en:01:27:25.657Click Image To View Full SizeClick To View Screenshot Click To View Screenshot Click To View Screenshot

GlodlsTo

Masterminds.2016.720p.BluRay.x264.DTS-HDChina
ImDb: http://www.imdb.com/title/tt2461150
Complete name : Masterminds.2016.720p.BluRay.x264.DTS-HDChina.mkv
Format : Matroska
Format version : Version 2
File size : 3.98 GiB
Duration : 1 h 34 min
Overall bit rate : 6 024 kb/s
Movie name : Masterminds 2016 720p BluRay x264 DTS-HDChina
Encoded date : UTC 2017-01-10 22:40:12
Writing application : mkvmerge v5.8.0 ('No Sleep / Pillow') built on Sep 2 2012 15:37:04
Writing library : libebml v1.2.3 + libmatroska v1.3.0
Video
ID : 1
Format : AVC
Format/Info : Advanced Video Codec
Format profile : /* */
Format settings, CABAC : Yes
Format settings, ReFrames : 9 frames
Muxing mode : Header stripping
Codec ID : V_MPEG4/ISO/AVC
Duration : 1 h 34 min
Bit rate : 4 500 kb/s
Width : 1 280 pixels
Height : 720 pixels
Display aspect ratio : 16:9
Frame rate mode : Constant
Frame rate : 23.976 (24000/1001) FPS
Color space : YUV
Chroma subsampling : 4:2:0
Bit depth : 8 bits
Scan type : Progressive
Bits/(Pixel*Frame) : 0.204
Stream size : 2.91 GiB (73%)
Title : Medusa @ HDChina
Writing library : x264 core 148 r2665kMod a01e339
Encoding settings : cabac=1 / ref=9 / deblock=1:-3:-3 / analyse=0x3:0x133 / me=umh / subme=11 / psy=1 / fade_compensate=0.00 / psy_rd=1.05:0.00 / mixed_ref=1 / me_range=32 / chroma_me=1 / trellis=2 / 8x8dct=1 / cqm=0 / deadzone=21,11 / fast_pskip=0 / chroma_qp_offset=-2 / threads=22 / lookahead_threads=3 / sliced_threads=0 / nr=0 / decimate=0 / interlaced=0 / bluray_compat=0 / constrained_intra=0 / fgo=0 / bframes=8 / b_pyramid=2 / b_adapt=2 / b_bias=0 / direct=3 / weightb=1 / open_gop=0 / weightp=2 / keyint=240 / keyint_min=24 / scenecut=40 / intra_refresh=0 / rc=2pass / mbtree=0 / bitrate=4500 / ratetol=1.0 / qcomp=0.70 / qpmin=0 / qpmax=69 / qpstep=4 / cplxblur=20.0 / qblur=0.5 / ip_ratio=1.20 / pb_ratio=1.20 / aq=3:0.85
Language : English
Default : Yes
Forced : No
Audio
ID : 2
Format : DTS
Format/Info : Digital Theater Systems
Mode : 16
Format settings, Endianness : Big
Muxing mode : Header stripping
Codec ID : A_DTS
Duration : 1 h 34 min
Bit rate mode : Constant
Bit rate : 1 509 kb/s
Channel(s) : 6 channels
Channel positions : Front: L C R, Side: L R, LFE
Sampling rate : 48.0 kHz
Frame rate : 93.750 FPS (512 spf)
Bit depth : 24 bits
Compression mode : Lossy
Stream size : 1 022 MiB (25%)
Language : English
Default : Yes
Forced : No
Text
ID : 3
Format : PGS
Muxing mode : zlib
Codec ID : S_HDMV/PGS
Codec ID/Info : Picture based subtitle format used on BDs/HD-DVDs
Language : English
Default : Yes
Forced : No
Menu
00:00:00.000 : en:00:00:00.000
00:06:37.188 : en:00:06:37.188
00:10:15.240 : en:00:10:15.240
00:16:56.432 : en:00:16:56.432
00:28:08.353 : en:00:28:08.353
00:31:30.138 : en:00:31:30.138
00:37:39.716 : en:00:37:39.716
00:45:28.476 : en:00:45:28.476
00:50:03.167 : en:00:50:03.167
00:57:30.906 : en:00:57:30.906
01:02:59.609 : en:01:02:59.609
01:07:59.158 : en:01:07:59.158
01:14:12.782 : en:01:14:12.782
01:20:20.024 : en:01:20:20.024
01:23:22.581 : en:01:23:22.581
01:27:25.657 : en:01:27:25.657
Click Image To View Full Size
Click To View Screenshot
Click To View Screenshot
Click To View Screenshot

Files (5):

  • Masterminds.2016.720p.BluRay.x264.DTS-HDChina[PRiME].mkv (4 GB)
  • Please Support!! Read More!!!.txt (232 B)
  • Torrent Downloaded From 1337x.to.txt (69 B)
  • Torrent Downloaded From ExtraTorrent.cc.txt (446 B)
  • Torrent downloaded from AhaShare.com.txt (59 B)
Torrof does not host any content on its servers, but allows his users to search existing torrents for "Masterminds.2016.720p.BluRay.x264.DTS-HDChina[PRiME]" and download it for free from most famous Torrent Trackers: #Ahashare, #Torrentbit, #GlodlsTo, #Limetorrents, #Yourbittorrent, #Btscene