Million Dollar Arm 2014 Brrip X264 Ac3 Millenium

Million Dollar Arm 2014 BRrip x264 Ac3-MiLLENiUM Video / Sports Related

  • 1.3 GB
  • 0 S
  • 1 L
  • Sep 2014

Download fast (14 free days): Download torrent Magnet link

Description(s):

Btscene

SilverTorrent - Clean And Verified Torrents Download
Million.Dollar.Arm.2014.BRrip.x264.Ac3-MiLLENiUM
iMDB:http://www.imdb.com/title/tt1647668//
General
Complete name : Million.Dollar.Arm.2014.BRrip.x264.Ac3-MiLLENiUM.mkv
Format : Matroska
Format version : Version 2
File size : 1.20 GiB
Duration : 2h 4mn
Overall bit rate mode : Variable
Overall bit rate : 1 381 Kbps
ID : 1
Format : AVC
Format/Info : Advanced Video Codec
Format profile : High@L4.1
Format settings, CABAC : Yes
Format settings, ReFrames : 3 frames
Codec ID : V_MPEG4/ISO/AVC
Duration : 2h 4mn
Bit rate mode : Variable
Bit rate : 970 Kbps
Maximum bit rate : 40.0 Mbps
Width : 720 pixels
Height : 304 pixels
Display aspect ratio : 2.35:1
Frame rate : 23.976 fps
Color space : YUV
Chroma subsampling : 4:2:0
Bit depth : 8 bits
Scan type : Progressive
Bits/(Pixel*Frame) : 0.185
Stream size : 862 MiB (70%)
Writing library : x264 core 142 r2431 ac76440
Default : Yes
Forced : No
Color primaries : BT.709-5, BT.1361, IEC 61966-2-4, SMPTE RP177
Transfer characteristics : BT.709-5, BT.1361
Matrix coefficients : BT.709-5, BT.1361, IEC 61966-2-4 709, SMPTE RP177
ID : 2
Format : AC-3
Format/Info : Audio Coding 3
Mode extension : CM (complete main)
Codec ID : A_AC3
Duration : 2h 4mn
Bit rate mode : Constant
Bit rate : 384 Kbps
Channel(s) : 6 channels
Channel positions : Front: L C R, Side: L R, LFE
Sampling rate : 48.0 KHz
Bit depth : 16 bits
Compression mode : Lossy
Stream size : 341 MiB (28%)
Language : English
Default : Yes
Forced : No
Follow us On:
We are on FaceBook, Post Your Request, Suggestions etc
https://www.facebook.com/ALi1997torrents
==================================
https://www.facebook.com/Silvertorrent
SilverTorrent - Clean And Verified Torrents Download

Thepiratebay

SilverTorrent - Clean And Verified Torrents Download
download Million Dollar Arm 2014 BRrip x264 Ac3-MiLLENiUM
download Million Dollar Arm 2014 BRrip x264 Ac3-MiLLENiUM
Million.Dollar.Arm.2014.BRrip.x264.Ac3-MiLLENiUM
iMDB:http://www.imdb.com/title/tt1647668//
General
Complete name : Million.Dollar.Arm.2014.BRrip.x264.Ac3-MiLLENiUM.mkv
Format : Matroska
Format version : Version 2
File size : 1.20 GiB
Duration : 2h 4mn
Overall bit rate mode : Variable
Overall bit rate : 1 381 Kbps
ID : 1
Format : AVC
Format/Info : Advanced Video Codec
Format profile : High@L4.1
Format settings, CABAC : Yes
Format settings, ReFrames : 3 frames
Codec ID : V_MPEG4/ISO/AVC
Duration : 2h 4mn
Bit rate mode : Variable
Bit rate : 970 Kbps
Maximum bit rate : 40.0 Mbps
Width : 720 pixels
Height : 304 pixels
Display aspect ratio : 2.35:1
Frame rate : 23.976 fps
Color space : YUV
Chroma subsampling : 4:2:0
Bit depth : 8 bits
Scan type : Progressive
Bits/(Pixel*Frame) : 0.185
Stream size : 862 MiB (70%)
Writing library : x264 core 142 r2431 ac76440
Default : Yes
Forced : No
Color primaries : BT.709-5, BT.1361, IEC 61966-2-4, SMPTE RP177
Transfer characteristics : BT.709-5, BT.1361
Matrix coefficients : BT.709-5, BT.1361, IEC 61966-2-4 709, SMPTE RP177
ID : 2
Format : AC-3
Format/Info : Audio Coding 3
Mode extension : CM (complete main)
Codec ID : A_AC3
Duration : 2h 4mn
Bit rate mode : Constant
Bit rate : 384 Kbps
Channel(s) : 6 channels
Channel positions : Front: L C R, Side: L R, LFE
Sampling rate : 48.0 KHz
Bit depth : 16 bits
Compression mode : Lossy
Stream size : 341 MiB (28%)
Language : English
Default : Yes
Forced : No
download Million Dollar Arm 2014 BRrip x264 Ac3-MiLLENiUM
http://i.imgur.com/8LCooaY.jpg

Kickasstorrents

Movie:Million Dollar ArmIMDB link:1647668Detected quality:Blu-RayGenre:DramaLanguage:English Available in versions:1080p720pBlu-RayBDRipHDRiPDVDRipMPEG-4
SilverTorrent - Clean And Verified Torrents Download
Million.Dollar.Arm.2014.BRrip.x264.Ac3-MiLLENiUM
iMDB:http://www.imdb.com/title/tt1647668//
General
Complete name : Million.Dollar.Arm.2014.BRrip.x264.Ac3-MiLLENiUM.mkv
Format : Matroska
Format version : Version 2
File size : 1.20 GiB
Duration : 2h 4mn
Overall bit rate mode : Variable
Overall bit rate : 1 381 Kbps
ID : 1
Format : AVC
Format/Info : Advanced Video Codec
Format profile : High@L4.1
Format settings, CABAC : Yes
Format settings, ReFrames : 3 frames
Codec ID : V_MPEG4/ISO/AVC
Duration : 2h 4mn
Bit rate mode : Variable
Bit rate : 970 Kbps
Maximum bit rate : 40.0 Mbps
Width : 720 pixels
Height : 304 pixels
Display aspect ratio : 2.35:1
Frame rate : 23.976 fps
Color space : YUV
Chroma subsampling : 4:2:0
Bit depth : 8 bits
Scan type : Progressive
Bits/(Pixel*Frame) : 0.185
Stream size : 862 MiB (70%)
Writing library : x264 core 142 r2431 ac76440
Default : Yes
Forced : No
Color primaries : BT.709-5, BT.1361, IEC 61966-2-4, SMPTE RP177
Transfer characteristics : BT.709-5, BT.1361
Matrix coefficients : BT.709-5, BT.1361, IEC 61966-2-4 709, SMPTE RP177
ID : 2
Format : AC-3
Format/Info : Audio Coding 3
Mode extension : CM (complete main)
Codec ID : A_AC3
Duration : 2h 4mn
Bit rate mode : Constant
Bit rate : 384 Kbps
Channel(s) : 6 channels
Channel positions : Front: L C R, Side: L R, LFE
Sampling rate : 48.0 KHz
Bit depth : 16 bits
Compression mode : Lossy
Stream size : 341 MiB (28%)
Language : English
Default : Yes
Forced : No
Follow us On:
We are on FaceBook, Post Your Request, Suggestions etc
https://www.facebook.com/ALi1997torrents
==================================
https://www.facebook.com/Silvertorrent
SilverTorrent - Clean And Verified Torrents Download

GlodlsTo

SilverTorrent - Clean And Verified Torrents Download
Million.Dollar.Arm.2014.BRrip.x264.Ac3-MiLLENiUM
iMDB:http://www.imdb.com/title/tt1647668//
General
Complete name : Million.Dollar.Arm.2014.BRrip.x264.Ac3-MiLLENiUM.mkv
Format : Matroska
Format version : Version 2
File size : 1.20 GiB
Duration : 2h 4mn
Overall bit rate mode : Variable
Overall bit rate : 1 381 Kbps
ID : 1
Format : AVC
Format/Info : Advanced Video Codec
Format profile : /* */
Format settings, CABAC : Yes
Format settings, ReFrames : 3 frames
Codec ID : V_MPEG4/ISO/AVC
Duration : 2h 4mn
Bit rate mode : Variable
Bit rate : 970 Kbps
Maximum bit rate : 40.0 Mbps
Width : 720 pixels
Height : 304 pixels
Display aspect ratio : 2.35:1
Frame rate : 23.976 fps
Color space : YUV
Chroma subsampling : 4:2:0
Bit depth : 8 bits
Scan type : Progressive
Bits/(Pixel*Frame) : 0.185
Stream size : 862 MiB (70%)
Writing library : x264 core 142 r2431 ac76440
Default : Yes
Forced : No
Color primaries : BT.709-5, BT.1361, IEC 61966-2-4, SMPTE RP177
Transfer characteristics : BT.709-5, BT.1361
Matrix coefficients : BT.709-5, BT.1361, IEC 61966-2-4 709, SMPTE RP177
ID : 2
Format : AC-3
Format/Info : Audio Coding 3
Mode extension : CM (complete main)
Codec ID : A_AC3
Duration : 2h 4mn
Bit rate mode : Constant
Bit rate : 384 Kbps
Channel(s) : 6 channels
Channel positions : Front: L C R, Side: L R, LFE
Sampling rate : 48.0 KHz
Bit depth : 16 bits
Compression mode : Lossy
Stream size : 341 MiB (28%)
Language : English
Default : Yes
Forced : No
Follow us On:
We are on FaceBook, Post Your Request, Suggestions etc
https://www.facebook.com/ALi1997torrents
==================================
https://www.facebook.com/Silvertorrent
SilverTorrent - Clean And Verified Torrents Download

Files (4):

  • Torrent Downloaded from Silvertorrent.Org.txt (315 B)
  • Torrent Downloaded from Silvertorrent.Net.txt (315 B)
  • Million.Dollar.Arm.2014.BRrip.x264.Ac3-MiLLENiUM / sample.mkv (73.4 MB)
  • Million.Dollar.Arm.2014.BRrip.x264.Ac3-MiLLENiUM / Million.Dollar.Arm.2014.BRrip.x264.Ac3-MiLLENiUM.mkv (1.2 GB)
Torrof does not host any content on its servers, but allows his users to search existing torrents for "Million Dollar Arm 2014 BRrip x264 Ac3-MiLLENiUM" and download it for free from most famous Torrent Trackers: #Btscene, #Thepiratebay, #Torrentroom, #Kickasstorrents, #Sumotorrent, #Limetorrents, #Bitsnoop, #Seedpeer, #Torrentfunk, #GlodlsTo, #Monova