Psy Hangover [Dmitra]

PSY - Hangover [DMitra] Music / Mp3

  • 9.03 MB
  • 0 S
  • 0 L
  • Jan 2015

Download fast (14 free days): Magnet link

Description(s):

Kickasstorrents

media Info:
General
Format : MPEG Audio
File size : 9.04 MiB
Duration : 3mn 56s
Overall bit rate : 320 Kbps
Album : Hangover (feat. Snoop Dogg) - Single
Part/Position : 1
Track name : Hangover (feat. Snoop Dogg)
Track name/Position : 1
Performer : PSY
Composer : PSY, YOO GUN HYUNG & C. Broadus
Genre : Pop
Recorded date : 2014-06-09T07:00:00Z
Writing library : LAME3.82
Audio
Format : MPEG Audio
Format version : Version 1
Format profile : Layer 3
Duration : 3mn 57s
Bit rate mode : Constant
Bit rate : 320 Kbps
Channel(s) : 2 channels
Sampling rate : 44.1 KHz
Compression mode : Lossy
Stream size : 9.04 MiB (100%)
Writing library : LAME3.82
_scq.push();
Sharing Widget
Download torrent
9.04 MB
seeders:8
leechers:2

Limetorrents

media
Info: General
Format : MPEG Audio File size : 9.04 MiB Duration : 3mn 56s Overall bit rate : 320 Kbps Album : Hangover (feat. Snoop Dogg) - Single Part/Position : 1 Track name : Hangover (feat. Snoop
Dogg) Track name/Position : 1 Performer : PSY Composer : PSY, YOO GUN HYUNG & C. Broadus
Genre : Pop Recorded date : 2014-06-09T07:00:00Z Writing library : LAME3.82 Audio
Format : MPEG Audio Format version : Version 1 Format profile : Layer 3 Duration : 3mn 57s
Bit rate mode : Constant Bit rate : 320 Kbps Channel(s) : 2 channels Sampling rate : 44.1 KHz
Compression mode : Lossy Stream size : 9.04 MiB (100%) Writing library : LAME3.82

Files (1):

  • (0 B)
Torrof does not host any content on its servers, but allows his users to search existing torrents for "PSY - Hangover [DMitra]" and download it for free from most famous Torrent Trackers: #Kickasstorrents, #Limetorrents