Revolting Cocks Beers Steers Queers 1990 Flac+Cue [Rlg]

Revolting Cocks Beers Steers Queers 1990 FLAC+CUE [RLG] Music / FLAC

  • 394 MB
  • 1 S
  • 0 L
  • Oct 2014

Download fast (14 free days): Download torrent Magnet link

Description(s):

Torrentdownloadz

Tracklist Beers, Steers & Queers (Let\'s Get) Physical In The Neck Get Down Stainless Steel Providers Can\'t Sit Still Something Wonderful Razor\'s Edge Exact Audio Copy V1.0 beta 3 from 29. August 2011 EAC extraction logfile from 24. October 2014, 16:11 Revolting Cocks / Beers, Steers + Queers Used drive : TSSTcorpCDDVDW SH-S222A Adapter: 1 ID: 0 Read mode : Secure Utilize accurate stream : Yes Defeat audio cache : Yes Make use of C2 pointers : No Read offset correction : 6 Overread into Lead-In and Lead-Out : No Fill up missing offset samples with silence : Yes Delete leading and trailing silent blocks : No Null samples used in CRC calculations : Yes Used interface : Native Win32 interface for Win NT & 2000 Gap handling : Appended to previous track Used output format : User Defined Encoder Selected bitrate : 768 kBit/s Quality : High Add ID3 tag : No Audio Format : FLAC Format/Info : Free Lossless Audio Codec Bit rate mode : Variable Bit rate : 968 Kbps Channel(s) : 2 channels Sampling rate : 44.1 KHz Bit depth : 16 bits Stream size : 41.9 MiB (100%) Writing library : libFLAC 1.2.1 (UTC 2007-09-17)

Btscene

Tracklist
Beers, Steers & Queers
(Let's Get) Physical
In The Neck
Get Down
Stainless Steel Providers
Can't Sit Still
Something Wonderful
Razor's Edge
Exact Audio Copy V1.0 beta 3 from 29. August 2011
EAC extraction logfile from 24. October 2014, 16:11
Revolting Cocks / Beers, Steers + Queers
Used drive : TSSTcorpCDDVDW SH-S222A Adapter: 1 ID: 0
Read mode : Secure
Utilize accurate stream : Yes
Defeat audio cache : Yes
Make use of C2 pointers : No
Read offset correction : 6
Overread into Lead-In and Lead-Out : No
Fill up missing offset samples with silence : Yes
Delete leading and trailing silent blocks : No
Null samples used in CRC calculations : Yes
Used interface : Native Win32 interface for Win NT & 2000
Gap handling : Appended to previous track
Used output format : User Defined Encoder
Selected bitrate : 768 kBit/s
Quality : High
Add ID3 tag : No
Audio
Format : FLAC
Format/Info : Free Lossless Audio Codec
Bit rate mode : Variable
Bit rate : 968 Kbps
Channel(s) : 2 channels
Sampling rate : 44.1 KHz
Bit depth : 16 bits
Stream size : 41.9 MiB (100%)
Writing library : libFLAC 1.2.1 (UTC 2007-09-17)

Thepiratebay

Tracklist
Beers, Steers & Queers
(Let's Get) Physical
In The Neck
Get Down
Stainless Steel Providers
Can't Sit Still
Something Wonderful
Razor's Edge
Exact Audio Copy V1.0 beta 3 from 29. August 2011
EAC extraction logfile from 24. October 2014, 16:11
Revolting Cocks / Beers, Steers + Queers
Used drive : TSSTcorpCDDVDW SH-S222A Adapter: 1 ID: 0
Read mode : Secure
Utilize accurate stream : Yes
Defeat audio cache : Yes
Make use of C2 pointers : No
Read offset correction : 6
Overread into Lead-In and Lead-Out : No
Fill up missing offset samples with silence : Yes
Delete leading and trailing silent blocks : No
Null samples used in CRC calculations : Yes
Used interface : Native Win32 interface for Win NT & 2000
Gap handling : Appended to previous track
Used output format : User Defined Encoder
Selected bitrate : 768 kBit/s
Quality : High
Add ID3 tag : No
Audio
Format : FLAC
Format/Info : Free Lossless Audio Codec
Bit rate mode : Variable
Bit rate : 968 Kbps
Channel(s) : 2 channels
Sampling rate : 44.1 KHz
Bit depth : 16 bits
Stream size : 41.9 MiB (100%)
Writing library : libFLAC 1.2.1 (UTC 2007-09-17)

Kickasstorrents

Tracklist
Beers, Steers & Queers
(Let's Get) Physical
In The Neck
Get Down
Stainless Steel Providers
Can't Sit Still
Something Wonderful
Razor's Edge
Exact Audio Copy V1.0 beta 3 from 29. August 2011
EAC extraction logfile from 24. October 2014, 16:11
Revolting Cocks / Beers, Steers + Queers
Used drive : TSSTcorpCDDVDW SH-S222A Adapter: 1 ID: 0
Read mode : Secure
Utilize accurate stream : Yes
Defeat audio cache : Yes
Make use of C2 pointers : No
Read offset correction : 6
Overread into Lead-In and Lead-Out : No
Fill up missing offset samples with silence : Yes
Delete leading and trailing silent blocks : No
Null samples used in CRC calculations : Yes
Used interface : Native Win32 interface for Win NT & 2000
Gap handling : Appended to previous track
Used output format : User Defined Encoder
Selected bitrate : 768 kBit/s
Quality : High
Add ID3 tag : No
Audio
Format : FLAC
Format/Info : Free Lossless Audio Codec
Bit rate mode : Variable
Bit rate : 968 Kbps
Channel(s) : 2 channels
Sampling rate : 44.1 KHz
Bit depth : 16 bits
Stream size : 41.9 MiB (100%)
Writing library : libFLAC 1.2.1 (UTC 2007-09-17)

Files (14):

  • 04 Get Down.flac (91 MB)
  • 09 (Let's Talk) Physical.flac (43.1 MB)
  • 05 Stainless Steel Providers.flac (42.4 MB)
  • 01 Beers, Steers + Queers.flac (41.9 MB)
  • 06 Can't Sit Still.flac (40.2 MB)
  • 03 In The Neck.flac (38.5 MB)
  • 08 Razor's Edge.flac (33.2 MB)
  • 02 (Let's Get) Physical.flac (31.7 MB)
  • 07 Something Wonderful.flac (31.5 MB)
  • rEVOLTING sPECTRO.png (252 KB)
  • Revolting Cocks - Beers, Steers + Queers.jpg (52.6 KB)
  • Revolting Cocks - Beers, Steers + Queers.log (11.2 KB)
  • Beers, Steers + Queers.cue (1.6 KB)
  • Revolting Cocks - Beers, Steers + Queers.m3u8 (696 B)

show full list …

collapse the list

Torrof does not host any content on its servers, but allows his users to search existing torrents for "Revolting Cocks Beers Steers Queers 1990 FLAC+CUE [RLG]" and download it for free from most famous Torrent Trackers: #Torrentbit, #Torrentdownloadz, #Btscene, #Thepiratebay, #Bittorrentz, #Limetorrents, #Kickasstorrents, #Bitsnoop, #Torrentfunk, #Monova