Shutter Island 2010 (1080P Bluray X265 Hevc 10Bit Aac 5 1 Tigole)

Shutter Island 2010 (1080p Bluray x265 HEVC 10bit AAC 5 1 Tigole) Video / Mystery

  • 3.2 GB
  • 1 S
  • 1 L
  • Sep 2016

Download fast (14 free days): Download torrent Magnet link

Description(s):

Torrentbit

Shutter Island 2010 in 1080p, encoded with x265 in HEVC and AAC 5.1 English, with English and German subtitles!
Encoded using the time consuming 2 pass, 10 bit color at 2500 kbps, from a Blu-ray source, for the highest quality possible.
Media InformationGeneral
Format : Matroska
Format version : Version 4 / Version 2
File size : 2.74 GiB
Duration : 2h 18mn
Overall bit rate : 2 832 Kbps
Movie name : Shutter Island
Encoded date : UTC 2016-09-06 22:37:33
Writing application : mkvmerge v9.4.0 ('Knurl') 64bit
Writing library : libebml v1.3.4 + libmatroska v1.4.5
Video
ID : 1
Format : HEVC
Format/Info : High Efficiency Video Coding
Format profile : Main /* */@Main
Codec ID : V_MPEGH/ISO/HEVC
Duration : 2h 18mn
Bit rate : 2 487 Kbps
Width : 1 920 pixels
Height : 816 pixels
Display aspect ratio : 2.35:1
Frame rate mode : Constant
Frame rate : 23.976 (24000/1001) fps
Color space : YUV
Chroma subsampling : 4:2:0
Bit depth : 10 bits
Bits/(Pixel*Frame) : 0.066
Stream size : 2.40 GiB (88%)
Writing library : x265 1.9+200-6098ba3e0cf16b11: 10bit
Encoding settings : wpp / ctu=64 / min-cu-size=8 / max-tu-size=32 / tu-intra-depth=1 / tu-inter-depth=1 / me=1 / subme=2 / merange=57 / no-rect / no-amp / max-merge=2 / temporal-mvp / no-early-skip / recursion-skip / rdpenalty=0 / no-tskip / no-tskip-fast / strong-intra-smoothing / no-lossless / no-cu-lossless / no-constrained-intra / no-fast-intra / open-gop / no-temporal-layers / interlace=0 / keyint=250 / min-keyint=23 / scenecut=40 / rc-lookahead=20 / lookahead-slices=5 / bframes=4 / bframe-bias=0 / b-adapt=2 / ref=3 / limit-refs=3 / no-limit-modes / weightp / no-weightb / aq-mode=1 / qg-size=32 / aq-strength=1.00 / cbqpoffs=0 / crqpoffs=0 / rd=3 / psy-rd=2.00 / rdoq-level=0 / psy-rdoq=0.00 / no-rd-refine / signhide / deblock=0:0 / sao / no-sao-non-deblock / b-pyramid / cutree / no-intra-refresh / rc=2 / pass / bitrate=2488 / qcomp=0.60 / qpmin=0 / qpmax=51 / qpstep=4 / cplxblur=20.0 / qblur=0.5 / ipratio=1.40 / pbratio=1.30
Default : Yes
Forced : No
Audio
ID : 2
Format : AAC
Format/Info : Advanced Audio Codec
Format profile : LC
Codec ID : A_AAC
Duration : 2h 18mn
Bit rate : 330 Kbps
Channel(s) : 6 channels
Channel positions : Front: L C R, Side: L R, LFE
Sampling rate : 48.0 KHz
Frame rate : 46.875 fps (1024 spf)
Compression mode : Lossy
Delay relative to video : 20ms
Stream size : 326 MiB (12%)
Language : English
Default : Yes
Forced : No
Text #1
ID : 3
Format : UTF-8
Codec ID : S_TEXT/UTF8
Codec ID/Info : UTF-8 Plain Text
Duration : 2h 8mn
Bit rate : 61 bps
Count of elements : 1655
Stream size : 58.0 KiB (0%)
Language : English
Default : No
Forced : No
Text #2
ID : 4
Format : VobSub
Muxing mode : zlib
Codec ID : S_VOBSUB
Codec ID/Info : Picture based subtitle format used on DVDs
Duration : 2h 8mn
Bit rate : 13.6 Kbps
Count of elements : 2919
Stream size : 12.5 MiB (0%)
Language : German
Default : No
Forced : No
Text #3
ID : 5
Format : VobSub
Muxing mode : zlib
Codec ID : S_VOBSUB
Codec ID/Info : Picture based subtitle format used on DVDs
Duration : 1h 29mn
Bit rate : 28 bps
Count of elements : 5
Stream size : 18.6 KiB (0%)
Title : Forced
Language : German
Default : No
Forced : No
Menu
00:00:00.000 : en:Chapter 01
00:09:52.425 : en:Chapter 02
00:20:14.004 : en:Chapter 03
00:26:49.649 : en:Chapter 04
00:38:05.616 : en:Chapter 05
00:48:47.257 : en:Chapter 06
00:55:31.870 : en:Chapter 07
01:04:16.644 : en:Chapter 08
01:17:00.198 : en:Chapter 09
01:31:51.756 : en:Chapter 10
01:40:18.178 : en:Chapter 11
01:45:55.474 : en:Chapter 12
01:52:59.981 : en:Chapter 13
01:57:53.983 : en:Chapter 14
02:04:04.770 : en:Chapter 15
02:10:45.963 : en:Chapter 16
Source InformationComplete name : Shutter_Island_t02_apekat.mkv
File size : 33.5 GiB
Duration : 2h 18mn
Overall bit rate : 34.7 Mbps

GlodlsTo

Shutter Island 2010 in 1080p, encoded with x265 in HEVC and AAC 5.1 English, with English and German subtitles!
Encoded using the time consuming 2 pass, 10 bit color at 2500 kbps, from a Blu-ray source, for the highest quality possible.

Yourbittorrent

Shutter IslandMartin Scorsese and Leonardo DiCaprio team up for a fourth time for this adaptation of Shutter Island, a novel by Dennis Lehane (Mystic River). The film opens in 1954 as World War II veteran and current federal marshal Teddy Daniels (Leonardo DiCaprio) and his new partner, Chuck (Mark Ruffalo), ferry to Shutter Island, a water-bound mental hospital housing the criminally insane. They have been asked to investigate the disappearance of Rachel Solando (Emily Mortimer), a patient admitted to the asylum after she murdered her three children. As Teddy quizzes Dr. Cawley (Ben Kingsley), the head of the institution, he begins to suspect that the authorities in charge might not be giving him the whole truth, and that a terrible fate may befall all the patients in the spooky Ward C -- a unit devoted to the most heinous of the hospital's inmates. Complicating matters further, Teddy has a secret of his own -- the arsonist who murdered his wife is incarcerated on Shutter Island. Driven to confront his wife's killer, and stranded on the island because of a hurricane, Teddy must unravel the secrets of the eerie place before succumbing to his own madness. Max von Sydow, Emily Mortimer, Michelle Williams, Patricia Clarkson, and Jackie Earle Haley round out the supporting cast. ~ Perry Seibert, Rovi

Files (3):

  • Featurettes / Behind the Shutters.mkv (196 MB)
  • Featurettes / Into the Lighthouse.mkv (242 MB)
  • Shutter Island 2010 (1080p x265 10bit Tigole).mkv (2.7 GB)
Torrof does not host any content on its servers, but allows his users to search existing torrents for "Shutter Island 2010 (1080p Bluray x265 HEVC 10bit AAC 5 1 Tigole)" and download it for free from most famous Torrent Trackers: #Torrentbit, #GlodlsTo, #Limetorrents, #Torrentroom, #Yourbittorrent