Star Trek Beyond Video / Sci-Fi

  • 1.2 GB
  • 0 S
  • 1 L
  • Sep 2016

Download fast (14 free days): Download torrent Magnet link

Description(s):

Torrentbit

With: Chris Pine, Zachary Quinto and Zoe Saldana
Captain Kirk, Spock, Scotty, Uhura en de rest van de bemanning van de Enterprise hebben twee jaar van hun vijf jaar durende missie erop zitten. Ze besluiten te stoppen op een buitenpost van de Federatie om even tot rust te kunnen komen van het werk dat ze verrichten. Daar worden ze echter aangevallen door een vijandige kracht die de naam Krall draagt, waardoor de crew vraagtekens begint te plaatsen bij het nut van hun organisatie.
The USS Enterprise crew explores the furthest reaches of uncharted space, where they encounter a new ruthless enemy who puts them and everything the Federation stands for to the test.
http://www.imdb.com/title/tt2660888
Dutch Friends 4ever
General:
Complete name : Star Trek BeyondStar Trek Beyond.avi
Format : AVI
Format/Info : Audio Video Interleave
File size : 1.17 GiB
Duration : 2h 2mn
Overall bit rate : 1 372 Kbps
Video:
Format : MPEG-4 Visual
Format profile : /* */
Format settings, BVOP : No
Format settings, QPel : No
Format settings, GMC : No warppoints
Format settings, Matrix : Default (H.263)
Codec ID : XVID
Codec ID/Hint : XviD
Duration : 2h 2mn
Bit rate : 1 199 Kbps
Width : 720 pixels
Height : 304 pixels
Display aspect ratio : 2.35:1
Frame rate : 23.976 fps
Color space : YUV
Chroma subsampling : 4:2:0
Bit depth : 8 bits
Scan type : Progressive
Compression mode : Lossy
Bits/(Pixel*Frame) : 0.228
Stream size : 1.02 GiB (87%)
Writing library : XviD 1.1.2 (UTC 2006-11-01)
Audio:
Format : MPEG Audio
Format version : Version 1
Format profile : Layer 3
Mode : Joint stereo
Mode extension : MS Stereo
Codec ID : 55
Codec ID/Hint : MP3
Duration : 2h 2mn
Source duration : 2h 2mn
Bit rate mode : Constant
Bit rate : 160 Kbps
Channel(s) : 2 channels
Sampling rate : 48.0 KHz
Compression mode : Lossy
Stream size : 140 MiB (12%)
Alignment : Split accross interleaves
Interleave, duration : 24 ms (0.58 video frame)
Interleave, preload duration : 380 ms
Writing library : LAME3.98

Btscene

With: Chris Pine, Zachary Quinto and Zoe Saldana
Captain Kirk, Spock, Scotty, Uhura en de rest van de bemanning van de Enterprise hebben twee jaar van hun vijf jaar durende missie erop zitten. Ze besluiten te stoppen op een buitenpost van de Federatie om even tot rust te kunnen komen van het werk dat ze verrichten. Daar worden ze echter aangevallen door een vijandige kracht die de naam Krall draagt, waardoor de crew vraagtekens begint te plaatsen bij het nut van hun organisatie.
The USS Enterprise crew explores the furthest reaches of uncharted space, where they encounter a new ruthless enemy who puts them and everything the Federation stands for to the test.
http://www.imdb.com/title/tt2660888
Dutch Friends 4ever
General:
Complete name : Star Trek Beyond\Star Trek Beyond.avi
Format : AVI
Format/Info : Audio Video Interleave
File size : 1.17 GiB
Duration : 2h 2mn
Overall bit rate : 1 372 Kbps
Video:
Format : MPEG-4 Visual
Format profile : /* */
Format settings, BVOP : No
Format settings, QPel : No
Format settings, GMC : No warppoints
Format settings, Matrix : Default (H.263)
Codec ID : XVID
Codec ID/Hint : XviD
Duration : 2h 2mn
Bit rate : 1 199 Kbps
Width : 720 pixels
Height : 304 pixels
Display aspect ratio : 2.35:1
Frame rate : 23.976 fps
Color space : YUV
Chroma subsampling : 4:2:0
Bit depth : 8 bits
Scan type : Progressive
Compression mode : Lossy
Bits/(Pixel*Frame) : 0.228
Stream size : 1.02 GiB (87%)
Writing library : XviD 1.1.2 (UTC 2006-11-01)
Audio:
Format : MPEG Audio
Format version : Version 1
Format profile : Layer 3
Mode : Joint stereo
Mode extension : MS Stereo
Codec ID : 55
Codec ID/Hint : MP3
Duration : 2h 2mn
Source duration : 2h 2mn
Bit rate mode : Constant
Bit rate : 160 Kbps
Channel(s) : 2 channels
Sampling rate : 48.0 KHz
Compression mode : Lossy
Stream size : 140 MiB (12%)
Alignment : Split accross interleaves
Interleave, duration : 24 ms (0.58 video frame)
Interleave, preload duration : 380 ms
Writing library : LAME3.98

GlodlsTo

With: Chris Pine, Zachary Quinto and Zoe Saldana
Captain Kirk, Spock, Scotty, Uhura en de rest van de bemanning van de Enterprise hebben twee jaar van hun vijf jaar durende missie erop zitten. Ze besluiten te stoppen op een buitenpost van de Federatie om even tot rust te kunnen komen van het werk dat ze verrichten. Daar worden ze echter aangevallen door een vijandige kracht die de naam Krall draagt, waardoor de crew vraagtekens begint te plaatsen bij het nut van hun organisatie.
The USS Enterprise crew explores the furthest reaches of uncharted space, where they encounter a new ruthless enemy who puts them and everything the Federation stands for to the test.
http://www.imdb.com/title/tt2660888
Dutch Friends 4ever

Yourbittorrent

Star Trek BeyondThe crew of the starship Enterprise embarks on another mission into deep space in this Paramount production penned by Star Trek and Star Trek Into Darkness scribes Alex Kurtzman and Roberto Orci. ~ Jason Buchanan, Rovi

Files (6):

  • Cover / Star Trek Beyond.jpg (1.2 MB)
  • Cover / www.Film-Test.nl.JPG (13.9 KB)
  • Star Trek Beyond.avi (1.2 GB)
  • www.Film-Test.nl.JPG (13.9 KB)
  • New Dutch Site.txt (117 B)
  • Torrent downloaded from demonoid.ph.txt (46 B)

show full list …

collapse the list

Torrof does not host any content on its servers, but allows his users to search existing torrents for "Star Trek Beyond" and download it for free from most famous Torrent Trackers: #Torrentbit, #Limetorrents, #Btscene, #Seedpeer, #GlodlsTo, #Yourbittorrent