Star Wars Episode Ii Attack Of The Clones 2002 Bluray 720P 2Chx265 Hevc Qman

Star Wars Episode II Attack Of The Clones 2002 BluRay 720p 2chx265 HEVC-Qman Video / Sci-Fi

  • 761 MB
  • 0 S
  • 0 L
  • Aug 2016

Download fast (14 free days): Download torrent Magnet link

Description(s):

Torrentbit

Media Info
File
Format: Matroska
Format version: Version 4 / Version 2
File size : 761 MiB
Duration: 2 h 22 min
Overall bit rate: 747 kb/s
Movie name: Attack of the Clones
Encoded date: UTC 2015-08-12 04:49:19
Writing application : mkvmerge v8.2.0 ('World of Adventure') 64bit
Writing library : libebml v1.3.1 + libmatroska v1.4.2
Video
ID: 1
Format: HEVC
Format/Info : High Efficiency Video Coding
Format profile: Main /* */@Main
Codec ID: V_MPEGH/ISO/HEVC
Duration: 2 h 22 min
Bit rate: 589 kb/s
Width : 1 280 pixels
Height: 720 pixels
Display aspect ratio: 16:9
Frame rate mode : Constant
Frame rate: 23.976 (24000/1001) FPS
Color space : YUV
Chroma subsampling: 4:2:0
Bit depth : 10 bits
Bits/(Pixel*Frame): 0.027
Stream size : 601 MiB (79%)
Writing library : x265 1.7+393-9982ac741d18: 10bit
Encoding settings : wpp / ctu=64 / min-cu-size=8 / max-tu-size=32 / tu-intra-depth=1 / tu-inter-depth=1 / me=1 / subme=2 / merange=57 / no-rect / no-amp / max-merge=2 / temporal-mvp / no-early-skip / rdpenalty=0 / no-tskip / no-tskip-fast / strong-intra-smoothing / no-lossless / no-cu-lossless / no-constrained-intra / no-fast-intra / open-gop / no-temporal-layers / interlace=0 / keyint=250 / min-keyint=23 / scenecut=40 / rc-lookahead=20 / lookahead-slices=0 / bframes=4 / bframe-bias=0 / b-adapt=2 / ref=3 / limit-refs=0 / weightp / no-weightb / aq-mode=1 / qg-size=32 / aq-strength=1.00 / cbqpoffs=0 / crqpoffs=0 / rd=3 / psy-rd=0.30 / rdoq-level=0 / psy-rdoq=0.00 / signhide / deblock / sao / no-sao-non-deblock / b-pyramid / cutree / rc=crf / crf=23.5 / qcomp=0.60 / qpmin=0 / qpmax=51 / qpstep=4 / ipratio=1.40 / pbratio=1.30
Language: English
Default : Yes
Forced: No
Audio
ID: 2
Format: AAC
Format/Info : Advanced Audio Codec
Format profile: HE-AAC / LC
Codec ID: A_AAC
Duration: 2 h 22 min
Bit rate: 141 kb/s
Channel(s): 2 channels
Channel positions : Front: L R
Sampling rate : 48.0 kHz / 24.0 kHz
Frame rate: 23.438 FPS (1024 spf)
Compression mode: Lossy
Stream size : 144 MiB (19%)
Language: English
Default : Yes
Forced: No
Text
ID: 3
Format: PGS
Muxing mode : zlib
Codec ID: S_HDMV/PGS
Codec ID/Info : Picture based subtitle format used on BDs/HD-DVDs
Duration: 2 h 22 min
Bit rate: 15.0 kb/s
Count of elements : 2434
Stream size : 15.2 MiB (2%)
Language: English
Default : Yes
Forced: No
Menu
00:00:00.000: en:Chapter 01
00:00:23.440: en:Chapter 02
00:01:50.527: en:Chapter 03
00:04:22.011: en:Chapter 04
00:07:00.044: en:Chapter 05
00:10:28.919: en:Chapter 06
00:14:19.900: en:Chapter 07
00:21:35.294: en:Chapter 08
00:24:48.236: en:Chapter 09
00:29:46.075: en:Chapter 10
00:31:33.308: en:Chapter 11
00:33:48.443: en:Chapter 12
00:34:50.546: en:Chapter 13
00:36:05.079: en:Chapter 14
00:38:25.845: en:Chapter 15
00:39:25.279: en:Chapter 16
00:40:55.995: en:Chapter 17
00:42:12.780: en:Chapter 18
00:44:01.972: en:Chapter 19
00:45:50.414: en:Chapter 20
00:47:50.075: en:Chapter 21
00:50:20.934: en:Chapter 22
00:53:01.344: en:Chapter 23
00:56:44.776: en:Chapter 24
00:58:56.699: en:Chapter 25
01:00:46.017: en:Chapter 26
01:03:41.484: en:Chapter 27
01:06:24.313: en:Chapter 28
01:11:18.732: en:Chapter 29
01:14:01.353: en:Chapter 30
01:15:23.519: en:Chapter 31
01:17:48.872: en:Chapter 32
01:21:40.353: en:Chapter 33
01:23:46.855: en:Chapter 34
01:28:10.076: en:Chapter 35
01:30:52.905: en:Chapter 36
01:33:38.487: en:Chapter 37
01:35:27.847: en:Chapter 38
01:42:44.783: en:Chapter 39
01:45:14.016: en:Chapter 40
01:49:53.628: en:Chapter 41
01:56:22.475: en:Chapter 42
01:57:47.602: en:Chapter 43
02:00:29.180: en:Chapter 44
02:04:48.981: en:Chapter 45
02:07:41.945: en:Chapter 46
02:11:23.667: en:Chapter 47
02:12:54.841: en:Chapter 48
02:14:49.247: en:Chapter 49
02:15:54.938: en:Chapter 50
­
­

GlodlsTo

Media Info
File
Format: Matroska
Format version: Version 4 / Version 2
File size : 761 MiB
Duration: 2 h 22 min
Overall bit rate: 747 kb/s
Movie name: Attack of the Clones
Encoded date: UTC 2015-08-12 04:49:19
Writing application : mkvmerge v8.2.0 ('World of Adventure') 64bit
Writing library : libebml v1.3.1 + libmatroska v1.4.2
Video
ID: 1
Format: HEVC
Format/Info : High Efficiency Video Coding
Format profile: Main /* */@Main
Codec ID: V_MPEGH/ISO/HEVC
Duration: 2 h 22 min
Bit rate: 589 kb/s
Width : 1 280 pixels
Height: 720 pixels
Display aspect ratio: 16:9
Frame rate...

Yourbittorrent

Star Wars: Episode II - Attack of the Clones 3DTen years after the 'Phantom Menace' threatened the planet Naboo, Padmé Amidala is now a Senator representing her homeworld. A faction of political separatists, led by Count Dooku, attempts to assassinate her. There are not enough Jedi to defend the Republic against the threat, so Chancellor Palpatine enlists the aid of Jango Fett, who promises that his army of clones will handle the situation. Meanwhile, Obi-Wan Kenobi continues to train the young Jedi Anakin Skywalker, who fears that the Jedi code will forbid his growing romance with Amidala.

Files (1):

  • Star.Wars.Episode.II.Attack.Of.The.Clones.2002.BluRay.720p.2chx265.HEVC-Qman[UTR].mkv (761 MB)
Torrof does not host any content on its servers, but allows his users to search existing torrents for "Star Wars Episode II Attack Of The Clones 2002 BluRay 720p 2chx265 HEVC-Qman" and download it for free from most famous Torrent Trackers: #Torrentbit, #Torrentroom, #Limetorrents, #GlodlsTo, #Yourbittorrent