Star Wars Episode Iv A New Hope 1977 Bluray 1080P 6 1 X265 Hevc Qman Perfecto

Star Wars Episode IV A New Hope 1977 BluRay 1080p 6 1 x265 HEVC-Qman Perfecto Video / Sci-Fi

  • 4.5 GB
  • 0 S
  • 2 L
  • Aug 2016

Download fast (14 free days): Download torrent Magnet link

Description(s):

Btscene

Media Info
File
Format: Matroska
Format version: Version 4 / Version 2
File size : 4.46 GiB
Duration: 2 h 4 min
Overall bit rate: 5 117 kb/s
Encoded date: UTC 2015-09-02 16:47:35
Writing application : mkvmerge v8.3.0 ('Over the Horizon') 64bit
Writing library : libebml v1.3.1 + libmatroska v1.4.2
Video
ID: 1
Format: HEVC
Format/Info : High Efficiency Video Coding
Format profile: Main /* */@Main
Codec ID: V_MPEGH/ISO/HEVC
Duration: 2 h 4 min
Bit rate: 4 338 kb/s
Width : 1 920 pixels
Height: 1 080 pixels
Display aspect ratio: 16:9
Frame rate mode : Constant
Frame rate: 23.976 (24000/1001) FPS
Color space : YUV
Chroma subsampling: 4:2:0
Bit depth : 10 bits
Bits/(Pixel*Frame): 0.087
Stream size : 3.78 GiB (85%)
Writing library : x265 1.7+393-9982ac741d18: 10bit
Encoding settings : wpp / ctu=64 / min-cu-size=8 / max-tu-size=32 / tu-intra-depth=1 / tu-inter-depth=1 / me=1 / subme=2 / merange=57 / no-rect / no-amp / max-merge=2 / temporal-mvp / no-early-skip / rdpenalty=0 / no-tskip / no-tskip-fast / strong-intra-smoothing / no-lossless / no-cu-lossless / no-constrained-intra / no-fast-intra / open-gop / no-temporal-layers / interlace=0 / keyint=250 / min-keyint=23 / scenecut=40 / rc-lookahead=20 / lookahead-slices=0 / bframes=4 / bframe-bias=0 / b-adapt=2 / ref=3 / limit-refs=0 / weightp / no-weightb / aq-mode=1 / qg-size=32 / aq-strength=1.00 / cbqpoffs=0 / crqpoffs=0 / rd=3 / psy-rd=0.30 / rdoq-level=0 / psy-rdoq=0.00 / signhide / deblock / sao / no-sao-non-deblock / b-pyramid / cutree / rc=crf / crf=18.0 / qcomp=0.60 / qpmin=0 / qpmax=51 / qpstep=4 / ipratio=1.40 / pbratio=1.30
Language: English
Default : Yes
Forced: No
Audio
ID: 2
Format: AAC
Format/Info : Advanced Audio Codec
Format profile: LC
Codec ID: A_AAC
Duration: 2 h 4 min
Bit rate: 755 kb/s
Channel(s): 7 channels
Channel positions : Front: L C R, Side: L C R, LFE
Sampling rate : 48.0 kHz
Frame rate: 46.875 FPS (1024 spf)
Compression mode: Lossy
Delay relative to video : 9 ms
Stream size : 674 MiB (15%)
Language: English
Default : Yes
Forced: No
Text
ID: 3
Format: PGS
Muxing mode : zlib
Codec ID: S_HDMV/PGS
Codec ID/Info : Picture based subtitle format used on BDs/HD-DVDs
Duration: 2 h 4 min
Bit rate: 21.3 kb/s
Count of elements : 2606
Stream size : 19.0 MiB (0%)
Language: English
Default : Yes
Forced: No
Menu
00:00:00.000: en:Chapter 01
00:00:21.021: en:Chapter 02
00:01:53.238: en:Chapter 03
00:04:52.792: en:Chapter 04
00:07:28.281: en:Chapter 05
00:08:54.867: en:Chapter 06
00:11:21.389: en:Chapter 07
00:15:40.230: en:Chapter 08
00:19:40.179: en:Chapter 09
00:23:33.203: en:Chapter 10
00:25:32.614: en:Chapter 11
00:27:45.497: en:Chapter 12
00:29:12.709: en:Chapter 13
00:32:34.077: en:Chapter 14
00:34:53.007: en:Chapter 15
00:36:54.212: en:Chapter 16
00:39:05.634: en:Chapter 17
00:41:42.291: en:Chapter 18
00:42:31.507: en:Chapter 19
00:44:51.730: en:Chapter 20
00:47:52.619: en:Chapter 21
00:49:57.995: en:Chapter 22
00:51:13.695: en:Chapter 23
00:52:40.740: en:Chapter 24
00:54:12.332: en:Chapter 25
00:56:59.916: en:Chapter 26
00:59:13.925: en:Chapter 27
01:03:10.828: en:Chapter 28
01:06:16.472: en:Chapter 29
01:08:21.972: en:Chapter 30
01:12:32.389: en:Chapter 31
01:14:12.656: en:Chapter 32
01:17:13.712: en:Chapter 33
01:19:09.327: en:Chapter 34
01:21:29.384: en:Chapter 35
01:25:00.220: en:Chapter 36
01:27:02.091: en:Chapter 37
01:29:56.182: en:Chapter 38
01:33:48.247: en:Chapter 39
01:36:39.877: en:Chapter 40
01:38:06.755: en:Chapter 41
01:39:37.513: en:Chapter 42
01:41:24.995: en:Chapter 43
01:42:37.401: en:Chapter 44
01:45:02.629: en:Chapter 45
01:49:42.784: en:Chapter 46
01:55:18.912: en:Chapter 47
01:57:47.393: en:Chapter 48
01:58:28.518: en:Chapter 49
02:00:14.498: en:Chapter 50

GlodlsTo

Media Info
File
Format: Matroska
Format version: Version 4 / Version 2
File size : 4.46 GiB
Duration: 2 h 4 min
Overall bit rate: 5 117 kb/s
Encoded date: UTC 2015-09-02 16:47:35
Writing application : mkvmerge v8.3.0 ('Over the Horizon') 64bit
Writing library : libebml v1.3.1 + libmatroska v1.4.2
Video
ID: 1
Format: HEVC
Format/Info : High Efficiency Video Coding
Format profile: Main /* */@Main
Codec ID: V_MPEGH/ISO/HEVC
Duration: 2 h 4 min
Bit rate: 4 338 kb/s
Width : 1 920 pixels
Height: 1 080 pixels
Display aspect ratio: 16:9
Frame rate mode : Constant
Frame rate:...

Yourbittorrent

Star Wars: Episode IV - A New HopeA legendarily expansive and ambitious start to the sci-fi saga, George Lucas opened our eyes to the possiblites of blockbuster filmmaking and things have never been the same.A young boy from Tatooine sets out on an adventure with an old Jedi named Obi-Wan Kenobi as his mentor to save Princess Leia from the ruthless Darth Vader and Destroy the Death Star built by the Empire which has the power to destroy the entire galaxy.

Files (1):

  • Star.Wars.Episode.IV.A.New.Hope.1977.BluRay.1080p.6.1.x265.HEVC-Qman[UTR].Perfecto.mkv (4.5 GB)
Torrof does not host any content on its servers, but allows his users to search existing torrents for "Star Wars Episode IV A New Hope 1977 BluRay 1080p 6 1 x265 HEVC-Qman Perfecto" and download it for free from most famous Torrent Trackers: #Btscene, #Limetorrents, #GlodlsTo, #Seedpeer, #Torrentroom, #Yourbittorrent