Star Wars Episode Vi Return Of The Jedi 1983 Bluray 1080P 6 1 X265 Hevc Qman Perfecto

Star Wars Episode VI Return Of The Jedi 1983 BluRay 1080p 6 1 x265 HEVC-Qman Perfecto Video / Sci-Fi

  • 5.8 GB
  • 7 S
  • 0 L
  • Aug 2016

Download fast (14 free days): Download torrent Magnet link

Description(s):

Btscene

Media Info
File
Format: Matroska
Format version: Version 4 / Version 2
File size : 5.80 GiB
Duration: 2 h 14 min
Overall bit rate: 6 161 kb/s
Movie name: Return of the Jedi
Encoded date: UTC 2015-10-17 02:22:28
Writing application : mkvmerge v8.4.0 ('A better way to fly') 64bit
Writing library : libebml v1.3.1 + libmatroska v1.4.2
Video
ID: 1
Format: HEVC
Format/Info : High Efficiency Video Coding
Format profile: Main /* */@Main
Codec ID: V_MPEGH/ISO/HEVC
Duration: 2 h 14 min
Bit rate: 5 331 kb/s
Width : 1 920 pixels
Height: 1 080 pixels
Display aspect ratio: 16:9
Frame rate mode : Constant
Frame rate: 23.976 (24000/1001) FPS
Color space : YUV
Chroma subsampling: 4:2:0
Bit depth : 10 bits
Bits/(Pixel*Frame): 0.107
Stream size : 5.02 GiB (87%)
Writing library : x265 1.8+31-b6156a08b1de: 10bit
Encoding settings : wpp / ctu=64 / min-cu-size=8 / max-tu-size=32 / tu-intra-depth=1 / tu-inter-depth=1 / me=1 / subme=2 / merange=57 / no-rect / no-amp / max-merge=2 / temporal-mvp / no-early-skip / rdpenalty=0 / no-tskip / no-tskip-fast / strong-intra-smoothing / no-lossless / no-cu-lossless / no-constrained-intra / no-fast-intra / open-gop / no-temporal-layers / interlace=0 / keyint=250 / min-keyint=23 / scenecut=40 / rc-lookahead=20 / lookahead-slices=0 / bframes=4 / bframe-bias=0 / b-adapt=2 / ref=3 / limit-refs=0 / weightp / no-weightb / aq-mode=1 / qg-size=32 / aq-strength=1.00 / cbqpoffs=0 / crqpoffs=0 / rd=3 / psy-rd=0.30 / rdoq-level=0 / psy-rdoq=0.00 / signhide / deblock / sao / no-sao-non-deblock / b-pyramid / cutree / rc=crf / crf=18.0 / qcomp=0.60 / qpmin=0 / qpmax=51 / qpstep=4 / ipratio=1.40 / pbratio=1.30
Language: English
Default : Yes
Forced: No
Audio
ID: 2
Format: AAC
Format/Info : Advanced Audio Codec
Format profile: LC
Codec ID: A_AAC
Duration: 2 h 14 min
Bit rate: 815 kb/s
Channel(s): 7 channels
Channel positions : Front: L C R, Side: L C R, LFE
Sampling rate : 48.0 kHz
Frame rate: 46.875 FPS (1024 spf)
Compression mode: Lossy
Delay relative to video : 9 ms
Stream size : 786 MiB (13%)
Language: English
Default : Yes
Forced: No
Text
ID: 3
Format: PGS
Muxing mode : zlib
Codec ID: S_HDMV/PGS
Codec ID/Info : Picture based subtitle format used on BDs/HD-DVDs
Duration: 2 h 14 min
Bit rate: 12.2 kb/s
Count of elements : 2012
Stream size : 11.7 MiB (0%)
Language: English
Default : Yes
Forced: No
Menu
00:00:00.000: en:Chapter 01
00:00:21.187: en:Chapter 02
00:01:55.115: en:Chapter 03
00:04:58.464: en:Chapter 04
00:08:10.907: en:Chapter 05
00:12:21.907: en:Chapter 06
00:14:22.027: en:Chapter 07
00:17:36.013: en:Chapter 08
00:22:10.037: en:Chapter 09
00:25:08.340: en:Chapter 10
00:29:37.358: en:Chapter 11
00:31:29.012: en:Chapter 12
00:37:44.470: en:Chapter 13
00:39:32.244: en:Chapter 14
00:45:17.423: en:Chapter 15
00:48:23.400: en:Chapter 16
00:51:36.009: en:Chapter 17
00:53:32.667: en:Chapter 18
00:54:25.095: en:Chapter 19
00:56:55.245: en:Chapter 20
00:58:43.811: en:Chapter 21
01:02:41.716: en:Chapter 22
01:06:19.266: en:Chapter 23
01:07:47.480: en:Chapter 24
01:12:01.108: en:Chapter 25
01:15:52.673: en:Chapter 26
01:18:14.815: en:Chapter 27
01:22:30.403: en:Chapter 28
01:26:06.870: en:Chapter 29
01:26:52.081: en:Chapter 30
01:27:50.890: en:Chapter 31
01:30:04.524: en:Chapter 32
01:33:19.135: en:Chapter 33
01:36:41.420: en:Chapter 34
01:40:25.185: en:Chapter 35
01:42:23.178: en:Chapter 36
01:44:27.803: en:Chapter 37
01:45:26.945: en:Chapter 38
01:48:42.432: en:Chapter 39
01:50:40.634: en:Chapter 40
01:51:37.107: en:Chapter 41
01:54:37.120: en:Chapter 42
01:55:07.859: en:Chapter 43
01:55:57.492: en:Chapter 44
01:57:40.178: en:Chapter 45
01:59:34.167: en:Chapter 46
02:01:58.853: en:Chapter 47
02:04:50.566: en:Chapter 48
02:05:27.436: en:Chapter 49
02:07:56.043: en:Chapter 50

Torrentbit

Media Info
File
Format: Matroska
Format version: Version 4 / Version 2
File size : 5.80 GiB
Duration: 2 h 14 min
Overall bit rate: 6 161 kb/s
Movie name: Return of the Jedi
Encoded date: UTC 2015-10-17 02:22:28
Writing application : mkvmerge v8.4.0 ('A better way to fly') 64bit
Writing library : libebml v1.3.1 + libmatroska v1.4.2
Video
ID: 1
Format: HEVC
Format/Info : High Efficiency Video Coding
Format profile: Main /* */@Main
Codec ID: V_MPEGH/ISO/HEVC
Duration: 2 h 14 min
Bit rate: 5 331 kb/s
Width : 1 920 pixels
Height: 1 080 pixels
Display aspect ratio: 16:9
Frame rate mode : Constant
Frame rate: 23.976 (24000/1001) FPS
Color space : YUV
Chroma subsampling: 4:2:0
Bit depth : 10 bits
Bits/(Pixel*Frame): 0.107
Stream size : 5.02 GiB (87%)
Writing library : x265 1.8+31-b6156a08b1de: 10bit
Encoding settings : wpp / ctu=64 / min-cu-size=8 / max-tu-size=32 / tu-intra-depth=1 / tu-inter-depth=1 / me=1 / subme=2 / merange=57 / no-rect / no-amp / max-merge=2 / temporal-mvp / no-early-skip / rdpenalty=0 / no-tskip / no-tskip-fast / strong-intra-smoothing / no-lossless / no-cu-lossless / no-constrained-intra / no-fast-intra / open-gop / no-temporal-layers / interlace=0 / keyint=250 / min-keyint=23 / scenecut=40 / rc-lookahead=20 / lookahead-slices=0 / bframes=4 / bframe-bias=0 / b-adapt=2 / ref=3 / limit-refs=0 / weightp / no-weightb / aq-mode=1 / qg-size=32 / aq-strength=1.00 / cbqpoffs=0 / crqpoffs=0 / rd=3 / psy-rd=0.30 / rdoq-level=0 / psy-rdoq=0.00 / signhide / deblock / sao / no-sao-non-deblock / b-pyramid / cutree / rc=crf / crf=18.0 / qcomp=0.60 / qpmin=0 / qpmax=51 / qpstep=4 / ipratio=1.40 / pbratio=1.30
Language: English
Default : Yes
Forced: No
Audio
ID: 2
Format: AAC
Format/Info : Advanced Audio Codec
Format profile: LC
Codec ID: A_AAC
Duration: 2 h 14 min
Bit rate: 815 kb/s
Channel(s): 7 channels
Channel positions : Front: L C R, Side: L C R, LFE
Sampling rate : 48.0 kHz
Frame rate: 46.875 FPS (1024 spf)
Compression mode: Lossy
Delay relative to video : 9 ms
Stream size : 786 MiB (13%)
Language: English
Default : Yes
Forced: No
Text
ID: 3
Format: PGS
Muxing mode : zlib
Codec ID: S_HDMV/PGS
Codec ID/Info : Picture based subtitle format used on BDs/HD-DVDs
Duration: 2 h 14 min
Bit rate: 12.2 kb/s
Count of elements : 2012
Stream size : 11.7 MiB (0%)
Language: English
Default : Yes
Forced: No
Menu
00:00:00.000: en:Chapter 01
00:00:21.187: en:Chapter 02
00:01:55.115: en:Chapter 03
00:04:58.464: en:Chapter 04
00:08:10.907: en:Chapter 05
00:12:21.907: en:Chapter 06
00:14:22.027: en:Chapter 07
00:17:36.013: en:Chapter 08
00:22:10.037: en:Chapter 09
00:25:08.340: en:Chapter 10
00:29:37.358: en:Chapter 11
00:31:29.012: en:Chapter 12
00:37:44.470: en:Chapter 13
00:39:32.244: en:Chapter 14
00:45:17.423: en:Chapter 15
00:48:23.400: en:Chapter 16
00:51:36.009: en:Chapter 17
00:53:32.667: en:Chapter 18
00:54:25.095: en:Chapter 19
00:56:55.245: en:Chapter 20
00:58:43.811: en:Chapter 21
01:02:41.716: en:Chapter 22
01:06:19.266: en:Chapter 23
01:07:47.480: en:Chapter 24
01:12:01.108: en:Chapter 25
01:15:52.673: en:Chapter 26
01:18:14.815: en:Chapter 27
01:22:30.403: en:Chapter 28
01:26:06.870: en:Chapter 29
01:26:52.081: en:Chapter 30
01:27:50.890: en:Chapter 31
01:30:04.524: en:Chapter 32
01:33:19.135: en:Chapter 33
01:36:41.420: en:Chapter 34
01:40:25.185: en:Chapter 35
01:42:23.178: en:Chapter 36
01:44:27.803: en:Chapter 37
01:45:26.945: en:Chapter 38
01:48:42.432: en:Chapter 39
01:50:40.634: en:Chapter 40
01:51:37.107: en:Chapter 41
01:54:37.120: en:Chapter 42
01:55:07.859: en:Chapter 43
01:55:57.492: en:Chapter 44
01:57:40.178: en:Chapter 45
01:59:34.167: en:Chapter 46
02:01:58.853: en:Chapter 47
02:04:50.566: en:Chapter 48
02:05:27.436: en:Chapter 49
02:07:56.043: en:Chapter 50
­
­

GlodlsTo

Media Info
File
Format: Matroska
Format version: Version 4 / Version 2
File size : 5.80 GiB
Duration: 2 h 14 min
Overall bit rate: 6 161 kb/s
Movie name: Return of the Jedi
Encoded date: UTC 2015-10-17 02:22:28
Writing application : mkvmerge v8.4.0 ('A better way to fly') 64bit
Writing library : libebml v1.3.1 + libmatroska v1.4.2
Video
ID: 1
Format: HEVC
Format/Info : High Efficiency Video Coding
Format profile: Main /* */@Main
Codec ID: V_MPEGH/ISO/HEVC
Duration: 2 h 14 min
Bit rate: 5 331 kb/s
Width : 1 920 pixels
Height: 1 080 pixels
Display aspect ratio: 16:9
Frame...

Yourbittorrent

Star Wars: Episode VI - Return of the JediDarth Vader and the Empire are building a new, indestructible Death Star. Meanwhile, Han Solo has been imprisoned, and Luke Skywalker has sent R2-D2 and C-3PO to try and free him. Princess Leia - disguised as a bounty hunter - and Chewbacca go along as well. The final battle takes place on the moon of Endor, with its natural inhabitants, the Ewoks, lending a hand to the Rebels. Will Darth Vader and the Dark Side overcome the Rebels and take over the universe?

Files (1):

  • Star.Wars.Episode.VI.Return.Of.The.Jedi.1983.BluRay.1080p.6.1.x265.HEVC-Qman[UTR].Perfecto.mkv (5.8 GB)
Torrof does not host any content on its servers, but allows his users to search existing torrents for "Star Wars Episode VI Return Of The Jedi 1983 BluRay 1080p 6 1 x265 HEVC-Qman Perfecto" and download it for free from most famous Torrent Trackers: #Btscene, #Torrentbit, #Torrentroom, #GlodlsTo, #Limetorrents, #Yourbittorrent