Sundown.2016.720P.web Dl.xvid.ac3 Fgt

Sundown.2016.720p.WEB-DL.XviD.AC3-FGT Video / Romance

  • 3 GB
  • 0 S
  • 0 L
  • Aug 2016

Download fast (14 free days): Download torrent Magnet link

Description(s):

Torrentbit

====================================================================
Sundown.2016.720p.WEB-DL.XviD.AC3-FGT
====================================================================
====================================================================
====================================================================
Video
ID : 0
Format : MPEG-4 Visual
Format profile : /* */
Format settings, BVOP : No
Format settings, QPel : No
Format settings, GMC : No warppoints
Format settings, Matrix : Default (H.263)
Codec ID : XVID
Codec ID/Hint : XviD
Duration : 1h 43mn
Bit rate : 3 797 Kbps
Width : 1 280 pixels
Height : 532 pixels
Display aspect ratio : 2.40:1
Frame rate : 23.976 fps
Color space : YUV
Chroma subsampling : 4:2:0
Bit depth : 8 bits
Scan type : Progressive
Compression mode : Lossy
Bits/(Pixel*Frame) : 0.233
Stream size : 2.75 GiB (91%)
Writing library : Lavc57.24.102
====================================================================
Audio
ID : 1
Format : AC3
Format/Info : Audio Coding 3
Mode extension : CM (complete main)
Format settings, Endianness : Big
Codec ID : 2000
Duration : 1h 43mn
Bit rate mode : Constant
Bit rate : 384 Kbps
Channel(s) : 6 channels
Channel positions : Front: L C R, Side: L R, LFE
Sampling rate : 48.0 KHz
Frame rate : 31.250 fps (1536 spf)
Compression mode : Lossy
Stream size : 285 MiB (9%)
Alignment : Aligned on interleaves
Interleave, duration : 42 ms (1.00 video frame)
Interleave, preload duration : 512 ms
====================================================================
====================================================================
====================================================================
Greetz To: SaM |oziman|juggs|LRS|SureNdrA|Psix|Masta|MgB|3Li|tomcat12|BADASSMEDIA|OZLEM|ETRG and Other Admins of Extratorrent|.
====================================================================

GlodlsTo

====================================================================
Sundown.2016.720p.WEB-DL.XviD.AC3-FGT
====================================================================
====================================================================
====================================================================
Video
ID : 0

Files (4):

  • English.srt (112 KB)
  • RARBG.com.txt (34 B)
  • Sundown.2016.720p.WEB-DL.XviD.AC3-FGT.avi (3 GB)
  • Sundown.2016.720p.WEB-DL.XviD.AC3-FGT.nfo (3.1 KB)
Torrof does not host any content on its servers, but allows his users to search existing torrents for "Sundown.2016.720p.WEB-DL.XviD.AC3-FGT" and download it for free from most famous Torrent Trackers: #Torrentbit, #Limetorrents, #GlodlsTo