Tarzan 2013 Bluray 1080P Dts X264 H3Ll2P4Y

Tarzan 2013 BluRay 1080p DTS X264 H3LL2P4Y Video / Kids

  • 9.9 GB
  • 0 S
  • 0 L
  • May 2014

Download fast (14 free days): Download torrent Magnet link

Description(s):

Btscene

Tarzan.2013.BluRay.1080p.DTS.X264.H3LL2P4Y
Poster
IMBD
http://www.imdb.com/title/tt1705952/?ref_=nv_sr_1
Plot
Tarzan and Jane Porter face a mercenary army dispatched by the evil CEO of Greystoke Energies, a man who took over
the company from Tarzan's parents, after they died in a plane crash.
Source
Tarzan.2013.3D.BluRay.1080p.AVC.DTS-HD.HR5.1-CHD;)
General
Complete name : C:\Tarzan.2013.BluRay.1080p.DTS.X264.H3LL2P4Y.mkv
Format : Matroska
Format version : Version 4 / Version 2
File size : 9.67 GiB
Duration : 1h 34mn
Overall bit rate : 14.7 Mbps
Encoded date : UTC 2014-05-18 11:47:04
Writing application : mkvmerge v6.5.0 ('Isn't she lovely') built on Oct 20 2013 12:50:05
Writing library : libebml v1.3.0 + libmatroska v1.4.1
Video
ID : 1
Format : AVC
Format/Info : Advanced Video Codec
Format profile :
/* */
Format settings, CABAC : Yes
Format settings, ReFrames : 10 frames
Codec ID : V_MPEG4/ISO/AVC
Duration : 1h 34mn
Bit rate : 12.6 Mbps
Width : 1 920 pixels
Height : 800 pixels
Display aspect ratio : 2.40:1
Frame rate mode : Constant
Frame rate : 23.976 fps
Color space : YUV
Chroma subsampling : 4:2:0
Bit depth : 8 bits
Scan type : Progressive
Bits/(Pixel*Frame) : 0.343
Stream size : 8.13 GiB (84%)
Writing library : x264 core 138 r2358 9e941d1
Encoding settings : cabac=1 / ref=10 / deblock=1:-2:-1 / analyse=0x3:0x113 / me=umh /
subme=8 / psy=1 / psy_rd=1.25:0.00 / mixed_ref=1 / me_range=16 / chroma_me=1 / trellis=1 / 8x8dct=1 / cqm=0 /
deadzone=21,11 / fast_pskip=1 / chroma_qp_offset=-3 / threads=10 / lookahead_threads=3 / sliced_threads=0 / nr=50 /
decimate=1 / interlaced=0 / bluray_compat=0 / constrained_intra=0 / bframes=7 / b_pyramid=2 / b_adapt=2 / b_bias=0
/ direct=3 / weightb=1 / open_gop=0 / weightp=2 / keyint=240 / keyint_min=23 / scenecut=40 / intra_refresh=0 /
rc_lookahead=50 / rc=2pass / mbtree=1 / bitrate=12649 / ratetol=1.0 / qcomp=0.60 / qpmin=10 / qpmax=59 / qpstep=4 /
cplxblur=20.0 / qblur=0.5 / vbv_maxrate=40000 / vbv_bufsize=30000 / nal_hrd=none / ip_ratio=1.40 / aq=1:0.60
Language : English
Default : Yes
Forced : No
Color primaries : BT.709
Transfer characteristics : BT.709
Matrix coefficients : BT.709
Audio
ID : 2
Format : DTS
Format/Info : Digital Theater Systems
Format profile : HRA / Core
Mode : 16
Format settings, Endianness : Big
Codec ID : A_DTS
Duration : 1h 34mn
Bit rate mode : Constant
Bit rate : 2 046 Kbps / 1 509 Kbps
Channel(s) : 6 channels
Channel positions : Front: L C R, Side: L R, LFE
Sampling rate : 96.0 KHz / 48.0 KHz
Bit depth : 24 bits
Compression mode : Lossy
Stream size : 1.35 GiB (14%)
Default : Yes
Forced : No
BD.Info
Pics
Source.VS.Encode:
screenshotcomparison
http://screenshotcomparison.com/comparison/75316
Greetz
Gotta send a special thank to my buddies they know who they are.
Anything to offer email @:
/* */

Files (2):

  • Tarzan.2013.3D.BluRay.1080p.DTS.X264.H3LL2P4Y.mkv (9.7 GB)
  • Sample.mkv (226 MB)
Torrof does not host any content on its servers, but allows his users to search existing torrents for "Tarzan 2013 BluRay 1080p DTS X264 H3LL2P4Y" and download it for free from most famous Torrent Trackers: #Btscene, #Bitsnoop, #Sumotorrent, #Limetorrents