The Giver (2014) Hd 720P X265 Ac3 Z@m@n

The Giver (2014) - HD 720p x265 AC3-Z@M@N Video / Sci-Fi

  • 1.5 GB
  • 1 S
  • 2 L
  • Oct 2016

Download fast (14 free days): Download torrent Magnet link

Description(s):

Btscene

The Giver (2014)
Drama, Romance, Sci-Fi
General
The Giver (2014) - HD 720p.mkv
Format : Matroska
Format version : Version 4 / Version 2
File size : 1.47 GiB
Duration : 1h 37mn
Overall bit rate : 2 166 Kbps
EncodedR /* */@N
Writing application : mkvmerge v9.2.0 ('Photograph') 64bit
Writing library : libebml v1.3.3 + libmatroska v1.4.4
DURATION : 01:37:23.139000000
NUMBER_OF_FRAMES : 167762
NUMBER_OF_BYTES : 140235336
Video
ID : 1
Format : HEVC
Format/Info : High Efficiency Video Coding
Format profile : Main /* */
Codec ID : V_MPEGH/ISO/HEVC
Duration : 1h 37mn
Bit rate : 1 931 Kbps
Width : 1 280 pixels
Height : 512 pixels
Display aspect ratio : 2.500
Frame rate mode : Constant
Frame rate : 29.970 fps
Color space : YUV
Chroma subsampling : 4:2:0
Bit depth : 10 bits
Bits/(Pixel*Frame) : 0.098
Stream size : 1.31 GiB (89%)
Writing library : x265 1.9+200-6098ba3e0cf16b11: 10bit
Audio
ID : 2
Format : AC-3
Format/Info : Audio Coding 3
Mode extension : CM (complete main)
Format settings, Endianness : Big
Codec ID : A_AC3
Duration : 1h 37mn
Bit rate mode : Constant
Bit rate : 192 Kbps
Channel(s) : 6 channels
Channel positions : Front: L C R, Side: L R, LFE
Sampling rate : 44.1 KHz
Bit depth : 16 bits
Compression mode : Lossy
Stream size : 134 MiB (9%)
Language : English
Default : No
Forced : No
please seeds after loading..To help others
IF YOU LIKE MY TORRENTS THEN PLEASE COMMENT
THANKS

GlodlsTo

The Giver (2014)
Drama, Romance, Sci-Fi
General
The Giver (2014) - HD 720p.mkv
Format : Matroska
Format version : Version 4 / Version 2
File size : 1.47 GiB
Duration : 1h 37mn
Overall bit rate : 2 166 Kbps
EncodedR /* */@N
Writing...

Yourbittorrent

The GiverThe haunting story of THE GIVER centers on Jonas (Brenton Thwaites), a young man who lives in a seemingly ideal, if colorless, world of conformity and contentment. Yet as he begins to spend time with The Giver (Jeff Bridges), who is the sole keeper of all the community's memories, Jonas quickly begins to discover the dark and deadly truths of his community's secret past. With this newfound power of knowledge, he realizes that the stakes are higher than imagined - a matter of life and death for himself and those he loves most. At extreme odds, Jonas knows that he must escape their world to protect them all - a challenge that no one has ever succeeded at before. THE GIVER is based on Lois Lowry's beloved young adult novel of the same name, which was the winner the 1994 Newbery Medal and has sold over 10 million copies worldwide. (C) Weinstein

Files (5):

  • The Giver (2014) - HD 720p.mkv (1.5 GB)
  • If you like my work.txt (33 B)
  • SAMPLE.mkv (9.5 MB)
  • Cover.jpg (293 KB)
  • Torrent downloaded from extratorrent.cc.txt (0 B)
Torrof does not host any content on its servers, but allows his users to search existing torrents for "The Giver (2014) - HD 720p x265 AC3-Z@M@N" and download it for free from most famous Torrent Trackers: #Btscene, #GlodlsTo, #Limetorrents, #Yourbittorrent