The host 2013 mp4 Video / Sci-Fi

  • 1.6 GB
  • 1 S
  • 0 L
  • Sep 2016

Download fast (14 free days): Download torrent Magnet link

Description(s):

Torrentbit

Complete name : Upload filmsThe host 2013.mp4
Format : MPEG-4
Format profile : Base Media / Version 2
Codec ID : mp42 (mp42/isom/avc1)
File size : 1.64 GiB
Duration : 2 h 5 min
Overall bit rate mode : Variable
Overall bit rate : 1 868 kb/s
Movie name : The Host 2013 720p
Genre : Sci-Fi
Recorded date : 2013
Encoded date : UTC 2015-05-15 00:36:59
Tagged date : UTC 2015-05-15 10:19:41
Encoded by : 800xl
LANGUAGE : English
SUBTITLE : English
WEBSITE :
Video
ID : 1
Format : AVC
Format/Info : Advanced Video Codec
Format profile : /* */
Format settings, CABAC : Yes
Format settings, ReFrames : 4 frames
Codec ID : avc1
Codec ID/Info : Advanced Video Coding
Duration : 2 h 5 min
Bit rate : 1 750 kb/s
Width : 1 280 pixels
Height : 544 pixels
Display aspect ratio : 2.35:1
Frame rate mode : Variable
Frame rate : 23.976 FPS
Minimum frame rate : 23.810 FPS
Maximum frame rate : 24.390 FPS
Color space : YUV
Chroma subsampling : 4:2:0
Bit depth : 8 bits
Scan type : Progressive
Bits/(Pixel*Frame) : 0.105
Stream size : 1.53 GiB (94%)
Writing library : x264 core 130 r2273 b3065e6
Encoding settings : cabac=1 / ref=3 / deblock=1:-1:-1 / analyse=0x3:0x113 / me=hex / subme=7 / psy=1 / psy_rd=1.00:0.15 / mixed_ref=1 / me_range=16 / chroma_me=1 / trellis=1 / 8x8dct=1 / cqm=0 / deadzone=21,11 / fast_pskip=1 / chroma_qp_offset=-3 / threads=6 / lookahead_threads=1 / sliced_threads=0 / nr=0 / decimate=1 / interlaced=0 / bluray_compat=0 / constrained_intra=0 / bframes=3 / b_pyramid=2 / b_adapt=1 / b_bias=0 / direct=1 / weightb=1 / open_gop=0 / weightp=2 / keyint=240 / keyint_min=24 / scenecut=40 / intra_refresh=0 / rc_lookahead=40 / rc=2pass / mbtree=1 / bitrate=1750 / ratetol=1.0 / qcomp=0.60 / qpmin=0 / qpmax=69 / qpstep=4 / cplxblur=20.0 / qblur=0.5 / vbv_maxrate=62500 / vbv_bufsize=78125 / nal_hrd=none / ip_ratio=1.40 / aq=1:1.00
Encoded date : UTC 2015-05-15 00:36:59
Tagged date : UTC 2015-05-15 02:45:29
Color range : Limited
Color primaries : BT.709
Transfer characteristics : BT.709
Matrix coefficients : BT.709
Audio
ID : 2
Format : AAC
Format/Info : Advanced Audio Codec
Format profile : LC
Codec ID : 40
Duration : 2 h 5 min
Bit rate mode : Variable
Bit rate : 112 kb/s
Maximum bit rate : 173 kb/s
Channel(s) : 2 channels
Channel positions : Front: L R
Sampling rate : 48.0 kHz
Frame rate : 46.875 FPS (1024 spf)
Compression mode : Lossy
Stream size : 101 MiB (6%)
Title : English AAC
Language : English
Encoded date : UTC 2015-05-15 00:36:59
Tagged date : UTC 2015-05-15 02:45:29
Text
ID : 3
Format : Timed Text
Muxing mode : sbtl
Codec ID : tx3g
Duration : 1 h 55 min
Bit rate mode : Variable
Bit rate : 50 b/s
Stream size : 42.5 KiB (0%)
Language : English
Default : Yes
Forced : No
Alternate group : 2
Encoded date : UTC 2015-05-15 00:36:59
Tagged date : UTC 2015-05-15 02:39:36

Btscene

Complete name : \Upload films\The host 2013.mp4
Format : MPEG-4
Format profile : Base Media / Version 2
Codec ID : mp42 (mp42/isom/avc1)
File size : 1.64 GiB
Duration : 2 h 5 min
Overall bit rate mode : Variable
Overall bit rate : 1 868 kb/s
Movie name : The Host 2013 720p
Genre : Sci-Fi
Recorded date : 2013
Encoded date : UTC 2015-05-15 00:36:59
Tagged date : UTC 2015-05-15 10:19:41
Encoded by : 800xl
LANGUAGE : English
SUBTITLE : English
WEBSITE :
Video
ID : 1
Format : AVC
Format/Info : Advanced Video Codec
Format profile : /* */
Format settings, CABAC : Yes
Format settings, ReFrames : 4 frames
Codec ID : avc1
Codec ID/Info : Advanced Video Coding
Duration : 2 h 5 min
Bit rate : 1 750 kb/s
Width : 1 280 pixels
Height : 544 pixels
Display aspect ratio : 2.35:1
Frame rate mode : Variable
Frame rate : 23.976 FPS
Minimum frame rate : 23.810 FPS
Maximum frame rate : 24.390 FPS
Color space : YUV
Chroma subsampling : 4:2:0
Bit depth : 8 bits
Scan type : Progressive
Bits/(Pixel*Frame) : 0.105
Stream size : 1.53 GiB (94%)
Writing library : x264 core 130 r2273 b3065e6
Encoding settings : cabac=1 / ref=3 / deblock=1:-1:-1 / analyse=0x3:0x113 / me=hex / subme=7 / psy=1 / psy_rd=1.00:0.15 / mixed_ref=1 / me_range=16 / chroma_me=1 / trellis=1 / 8x8dct=1 / cqm=0 / deadzone=21,11 / fast_pskip=1 / chroma_qp_offset=-3 / threads=6 / lookahead_threads=1 / sliced_threads=0 / nr=0 / decimate=1 / interlaced=0 / bluray_compat=0 / constrained_intra=0 / bframes=3 / b_pyramid=2 / b_adapt=1 / b_bias=0 / direct=1 / weightb=1 / open_gop=0 / weightp=2 / keyint=240 / keyint_min=24 / scenecut=40 / intra_refresh=0 / rc_lookahead=40 / rc=2pass / mbtree=1 / bitrate=1750 / ratetol=1.0 / qcomp=0.60 / qpmin=0 / qpmax=69 / qpstep=4 / cplxblur=20.0 / qblur=0.5 / vbv_maxrate=62500 / vbv_bufsize=78125 / nal_hrd=none / ip_ratio=1.40 / aq=1:1.00
Encoded date : UTC 2015-05-15 00:36:59
Tagged date : UTC 2015-05-15 02:45:29
Color range : Limited
Color primaries : BT.709
Transfer characteristics : BT.709
Matrix coefficients : BT.709
Audio
ID : 2
Format : AAC
Format/Info : Advanced Audio Codec
Format profile : LC
Codec ID : 40
Duration : 2 h 5 min
Bit rate mode : Variable
Bit rate : 112 kb/s
Maximum bit rate : 173 kb/s
Channel(s) : 2 channels
Channel positions : Front: L R
Sampling rate : 48.0 kHz
Frame rate : 46.875 FPS (1024 spf)
Compression mode : Lossy
Stream size : 101 MiB (6%)
Title : English AAC
Language : English
Encoded date : UTC 2015-05-15 00:36:59
Tagged date : UTC 2015-05-15 02:45:29
Text
ID : 3
Format : Timed Text
Muxing mode : sbtl
Codec ID : tx3g
Duration : 1 h 55 min
Bit rate mode : Variable
Bit rate : 50 b/s
Stream size : 42.5 KiB (0%)
Language : English
Default : Yes
Forced : No
Alternate group : 2
Encoded date : UTC 2015-05-15 00:36:59
Tagged date : UTC 2015-05-15 02:39:36

GlodlsTo

Complete name : \Upload films\The host 2013.mp4
Format : MPEG-4
Format profile : Base Media / Version 2
Codec ID : mp42 (mp42/isom/avc1)
File size : 1.64 GiB
Duration : 2 h 5 min
Overall bit rate mode : Variable
Overall bit rate : 1 868 kb/s
Movie name : The Host 2013 720p
Genre : Sci-Fi
Recorded date : 2013
Encoded date : UTC 2015-05-15 00:36:59
Tagged date : UTC 2015-05-15 10:19:41
Encoded by : 800xl...

Yourbittorrent

The HostThe film revolves around Park Hee-bong, a man in his late 60s. He runs a small snack bar on the banks of the Han River and lives with his two sons, one daughter, and one granddaughter. The Parks seem to lead a quite ordinary and peaceful life, but maybe they are a bit poorer than the average Seoulite. Hee-bong's elder son Gang-du is an immature and incompetent man in his 40s, whose wife left home long ago. Nam-il is the youngest son, an unemployed grumbler, and daughter Nam-joo is an archery medalist and member of the national team. One day, an unidentified monster suddenly appears from the depths of the Han River and spreads panic and death, and Gang-du's daughter Hyun-seo is carried off by the monster and disappears. All of the family members are in a great agony because they lost someone very dear to them. But when they find out she is still alive, they resolve to save her.

Files (1):

  • The host 2013.mp4 (1.6 GB)
Torrof does not host any content on its servers, but allows his users to search existing torrents for "The host 2013 mp4" and download it for free from most famous Torrent Trackers: #Torrentbit, #Btscene, #GlodlsTo, #Limetorrents, #Yourbittorrent