The Hunger Games Mockingjay Part 2 2015 (1080P Bluray X265 Hevc 10Bit Aac 7 1 Tigole)

The Hunger Games - Mockingjay Part 2 2015 (1080p Bluray x265 HEVC 10bit AAC 7 1 Tigole) Video / Sci-Fi

  • 5.1 GB
  • 0 S
  • 0 L
  • Sep 2016

Download fast (14 free days): Download torrent Magnet link

Description(s):

Torrentbit

The Hunger Games: Mockingjay Part 2 2015 in 1080p, encoded with x265 in HEVC and AAC 7.1 English, with English and Spanish subtitles!
Encoded using the time consuming 2 pass, 10 bit color at 2529 kbps, from a Blu-ray source, for the highest quality possible.
Media InformationGeneral
Format : Matroska
Format version : Version 4 / Version 2
File size : 2.86 GiB
Duration : 2h 16mn
Overall bit rate : 2 991 Kbps
Movie name : Hunger Games: Mockingjay Part 2
Encoded date : UTC 2016-09-18 14:49:46
Writing application : mkvmerge v9.2.0 ('Photograph') 64bit
Writing library : libebml v1.3.3 + libmatroska v1.4.4
Video
ID : 1
Format : HEVC
Format/Info : High Efficiency Video Coding
Format profile : Main /* */@Main
Codec ID : V_MPEGH/ISO/HEVC
Duration : 2h 16mn
Bit rate : 2 530 Kbps
Width : 1 920 pixels
Height : 800 pixels
Display aspect ratio : 2.40:1
Frame rate mode : Constant
Frame rate : 23.976 (24000/1001) fps
Color space : YUV
Chroma subsampling : 4:2:0
Bit depth : 10 bits
Bits/(Pixel*Frame) : 0.069
Stream size : 2.42 GiB (85%)
Writing library : x265 2.0+54-e5ca9b210223: 10bit
Encoding settings : wpp / ctu=64 / min-cu-size=8 / max-tu-size=32 / tu-intra-depth=1 / tu-inter-depth=1 / me=1 / subme=2 / merange=57 / no-rect / no-amp / max-merge=2 / temporal-mvp / no-early-skip / rskip / rdpenalty=0 / no-tskip / no-tskip-fast / strong-intra-smoothing / no-lossless / no-cu-lossless / no-constrained-intra / no-fast-intra / open-gop / no-temporal-layers / interlace=0 / keyint=250 / min-keyint=23 / scenecut=40 / rc-lookahead=20 / lookahead-slices=5 / bframes=4 / bframe-bias=0 / b-adapt=2 / ref=3 / limit-refs=3 / no-limit-modes / weightp / no-weightb / aq-mode=3 / qg-size=32 / aq-strength=1.00 / cbqpoffs=0 / crqpoffs=0 / rd=3 / psy-rd=2.00 / rdoq-level=0 / psy-rdoq=0.00 / log2-max-poc-lsb=8 / no-rd-refine / signhide / deblock=0:0 / sao / no-sao-non-deblock / b-pyramid / cutree / no-intra-refresh / rc=2 / pass / bitrate=2529 / qcomp=0.60 / qpmin=0 / qpmax=69 / qpstep=4 / cplxblur=20.0 / qblur=0.5 / ipratio=1.40 / pbratio=1.30
Default : Yes
Forced : No
Audio #1
ID : 2
Format : AAC
Format/Info : Advanced Audio Codec
Format profile : LC
Codec ID : A_AAC
Duration : 2h 16mn
Bit rate : 397 Kbps
Channel(s) : 8 channels
Channel positions : Front: L C R, Side: L R, Back: L R, LFE
Sampling rate : 48.0 KHz
Frame rate : 46.875 fps (1024 spf)
Compression mode : Lossy
Delay relative to video : 20ms
Stream size : 389 MiB (13%)
Language : English
Default : Yes
Forced : No
Audio #2
ID : 3
Format : AAC
Format/Info : Advanced Audio Codec
Format profile : HE-AAC / LC
Codec ID : A_AAC
Duration : 2h 16mn
Bit rate : 52.8 Kbps
Channel(s) : 2 channels
Channel positions : Front: L R
Sampling rate : 48.0 KHz / 24.0 KHz
Frame rate : 23.438 fps (1024 spf)
Compression mode : Lossy
Delay relative to video : 31ms
Stream size : 51.7 MiB (2%)
Language : English
Default : No
Forced : No
Text #1
ID : 4
Format : VobSub
Muxing mode : zlib
Codec ID : S_VOBSUB
Codec ID/Info : Picture based subtitle format used on DVDs
Duration : 2h 4mn
Bit rate : 5 048 bps
Count of elements : 1487
Stream size : 4.50 MiB (0%)
Language : English
Default : No
Forced : No
Text #2
ID : 5
Format : VobSub
Muxing mode : zlib
Codec ID : S_VOBSUB
Codec ID/Info : Picture based subtitle format used on DVDs
Duration : 2h 16mn
Bit rate : 4 309 bps
Count of elements : 1240
Stream size : 4.19 MiB (0%)
Language : Spanish
Default : No
Forced : No
Menu
00:00:00.000 : en:Chapter 01
00:07:39.041 : en:Chapter 02
00:16:49.216 : en:Chapter 03
00:24:46.985 : en:Chapter 04
00:31:59.959 : en:Chapter 05
00:37:11.687 : en:Chapter 06
00:46:42.716 : en:Chapter 07
00:55:00.880 : en:Chapter 08
01:02:46.429 : en:Chapter 09
01:09:27.496 : en:Chapter 10
01:18:42.968 : en:Chapter 11
01:29:51.135 : en:Chapter 12
01:37:08.239 : en:Chapter 13
01:49:01.785 : en:Chapter 14
01:56:55.758 : en:Chapter 15
02:03:33.239 : en:Chapter 16
Source InformationComplete name : Hunger_Games_Mockingjay_Part_2_t00_apekat.mkv
File size : 26.1 GiB
Duration : 2h 16mn
Overall bit rate mode : Variable
Overall bit rate : 27.3 Mbps

Yourbittorrent

The Hunger Games: Mockingjay - Part 2The second half of Suzanne Collins' final Hunger Games book is adapted in this Lionsgate production. ~ Jeremy Wheeler, Rovi

Files (9):

  • Featurettes / Cinna's Sketchbook - Secrets of the Mockingjay Armor.mkv (73.8 MB)
  • Featurettes / Deleted Scene 1.mkv (3.1 MB)
  • Featurettes / Deleted Scene 2.mkv (2.9 MB)
  • Featurettes / Deleted Scene 3.mkv (4.5 MB)
  • Featurettes / Jet to the Set.mkv (471 MB)
  • Featurettes / Panem on Display - The Hunger Games - The Exhibition.mkv (29.3 MB)
  • Featurettes / Pawns No More - The Making of.mkv (1.6 GB)
  • Featurettes / The Hunger Games - A Photographic Journey.mkv (85.3 MB)
  • The Hunger Games - Mockingjay Part 2 2015 (1080p x265 10bit Tigole).mkv (2.9 GB)

show full list …

collapse the list

Torrof does not host any content on its servers, but allows his users to search existing torrents for "The Hunger Games - Mockingjay Part 2 2015 (1080p Bluray x265 HEVC 10bit AAC 7 1 Tigole)" and download it for free from most famous Torrent Trackers: #Torrentbit, #Limetorrents, #Yourbittorrent