The Illusionist (2006) (1080P Bluray X265 Hevc 10Bit Aac 5.1) [Utr]

The Illusionist (2006) (1080p BluRay x265 HEVC 10bit AAC 5.1) [UTR] Video / Mystery

  • 1.8 GB
  • 2 S
  • 2 L
  • Mar 2016

Download fast (14 free days): Download torrent Magnet link

Description(s):

Bittorrentz

Hello, good day for downloading! Information about the torrent The Illusionist (2006) (1080p BluRay x265 HEVC 10bit AAC 5.1) [UTR], seeders, leechers and torrent status is updated everyday on our search engine Torrof. Keep this torrent alive don't stop seeding!

Kickasstorrents

Format : Matroska
Format version : Version 4 / Version 2
File size : 1.84 GiB
Duration : 1h 48mn
Overall bit rate : 2 415 Kbps
Encoded date : UTC 2016-03-04 16:10:50
Writing application : mkvmerge v8.9.0 ('Father Daughter') 64bit
Writing library : libebml v1.3.3 + libmatroska v1.4.4
Video
ID : 1
Format : HEVC
Format/Info : High Efficiency Video Coding
Format profile : Main 10@L4@Main
Codec ID : V_MPEGH/ISO/HEVC
Duration : 1h 48mn
Bit rate : 2 166 Kbps
Width : 1 920 pixels
Height : 1 080 pixels
Display aspect ratio : 16:9
Frame rate mode : Constant
Frame rate : 23.976 (24000/1001) fps
Color space : YUV
Chroma subsampling : 4:2:0
Bit depth : 10 bits
Bits/(Pixel*Frame) : 0.044
Stream size : 1.65 GiB (90%)
Writing library : x265 1.9+32-c2228fb8151d: 10bit
Encoding settings : wpp / ctu=64 / min-cu-size=8 / max-tu-size=32 / tu-intra-depth=1 / tu-inter-depth=1 / me=3 / subme=2 / merange=57 / no-rect / no-amp / max-merge=2 / temporal-mvp / no-early-skip / rdpenalty=0 / no-tskip / no-tskip-fast / no-strong-intra-smoothing / no-lossless / no-cu-lossless / no-constrained-intra / no-fast-intra / open-gop / no-temporal-layers / interlace=0 / keyint=250 / min-keyint=23 / scenecut=40 / rc-lookahead=20 / lookahead-slices=6 / bframes=4 / bframe-bias=0 / b-adapt=2 / ref=3 / limit-refs=3 / no-limit-modes / weightp / no-weightb / aq-mode=3 / qg-size=32 / aq-strength=1.00 / cbqpoffs=0 / crqpoffs=0 / rd=3 / psy-rd=0.35 / rdoq-level=1 / psy-rdoq=0.00 / no-rd-refine / signhide / deblock=-1:-1 / sao / no-sao-non-deblock / b-pyramid / cutree / no-intra-refresh / rc=crf / crf=21.5 / qcomp=0.60 / qpmin=0 / qpmax=51 / qpstep=4 / ipratio=1.40 / pbratio=1.30
Language : English
Default : Yes
Forced : No
Audio
ID : 2
Format : AAC
Format/Info : Advanced Audio Codec
Format profile : LC
Codec ID : A_AAC
Duration : 1h 48mn
Bit rate : 247 Kbps
Channel(s) : 6 channels
Channel positions : Front: L C R, Side: L R, LFE
Sampling rate : 48.0 KHz
Frame rate : 46.875 fps (1024 spf)
Compression mode : Lossy
Delay relative to video : 9ms
Stream size : 192 MiB (10%)
Language : English
Default : Yes
Forced : No
Take a seed, leave a seed please

Yourbittorrent

The IllusionistIn late nineteenth century Vienna, renowned illusionist Eisenheim is reunited with the Duchess von Teschen when she is volunteered from the audience to participate in an illusion during one of his performances. Despite having not seen each other in fifteen years when they were teenagers, they almost immediately recognize each other as Eduard Abramovich and Sophie von Teschen, they who had a doomed romance at that time due to their class differences. The Duchess is soon to be wed to the Crown Prince Leopold in what would be for him a marriage solely in pursuit of power: overthrowing his father, the Emperor Leopold, as well as overtaking the Hungarian side of the empire. The Crown Prince is known to use violence against women if it suits his needs or purposes. As such, the Duchess, who realizes that she still loves Eisenheim and he her, can never leave the Crown Prince without it jeopardizing her life. After Eisenheim humiliates the Crown Prince at a private show which results in an incident between the Crown Prince and the Duchess, the battle between Eisenheim and the Crown Prince moves into the public performance realm, which many believe demonstrates Eisenheim's supernatural powers. Much of the work for the Crown Prince in the battle with Eisenheim is conducted by Chief Inspector Uhl, who would become the Chief of Police under the Crown Prince's reign. As such, Uhl may have ulterior motives in turning a blind eye to any unlawful act of the Crown Prince against Eisenheim or the Duchess.

GlodlsTo

Media Info
File
Format : Matroska
Format version : Version 4 / Version 2
File size : 1.84 GiB
Duration : 1h 48mn
Overall bit rate : 2 415 Kbps
Encoded date : UTC 2016-03-04 16:10:50
Writing application : mkvmerge v8.9.0 ('Father Daughter') 64bit
Writing library : libebml v1.3.3 + libmatroska v1.4.4
Video
ID : 1
Format : HEVC
Format/Info : High Efficiency Video Coding
Format profile : Main /* */@Main
Codec ID : V_MPEGH/ISO/HEVC
Duration : 1h 48mn
Bit rate : 2 166 Kbps
Width : 1 920 pixels
Height : 1 080 pixels
Display aspect ratio : 16:9
Frame rate mode : Constant
Frame...

Files (1):

  • The.Illusionist.2006.BluRay.1080p.10bit.5.1.x265.HEVC-Qman[UTR].mkv (1.8 GB)
Torrof does not host any content on its servers, but allows his users to search existing torrents for "The Illusionist (2006) (1080p BluRay x265 HEVC 10bit AAC 5.1) [UTR]" and download it for free from most famous Torrent Trackers: #Torrentbit, #Limetorrents, #Torrentroom, #Bittorrentz, #Sumotorrent, #Kickasstorrents, #Yourbittorrent, #GlodlsTo