The Ninth Gate (1999) (1080P Bluray X265 Hevc 10Bit Aac 7.1 Tigole) [Utr]

The Ninth Gate (1999) (1080p Bluray x265 HEVC 10bit AAC 7.1 Tigole) [UTR] Video / Mystery

  • 2.8 GB
  • 0 S
  • 1 L
  • Oct 2016

Download fast (14 free days): Download torrent Magnet link

Description(s):

Btscene

The Ninth Gate 1999 in 1080p, encoded with x265 in HEVC and AAC 7.1 English, with subtitles!
Encoded using the time consuming 2 pass, 10 bit color at 2500 kbps, from a Blu-ray source, for the highest quality possible.
Media InformationGeneral
Format : Matroska
Format version : Version 4 / Version 2
File size : 2.78 GiB
Duration : 2 h 13 min
Overall bit rate : 2 983 kb/s
Encoded date : UTC 2016-10-08 08:26:33
Writing application : mkvmerge v9.4.2 (\'So High\') 64bit
Writing library : libebml v1.3.4 + libmatroska v1.4.5
Video
ID : 1
Format : HEVC
Format/Info : High Efficiency Video Coding
Format profile : Main /* */@Main
Codec ID : V_MPEGH/ISO/HEVC
Duration : 2 h 13 min
Bit rate : 2 501 kb/s
Width : 1 920 pixels
Height : 816 pixels
Display aspect ratio : 2.35:1
Frame rate mode : Constant
Frame rate : 23.976 (24000/1001) FPS
Color space : YUV
Chroma subsampling : 4:2:0
Bit depth : 10 bits
Bits/(Pixel*Frame) : 0.067
Stream size : 2.33 GiB (84%)
Writing library : x265 2.1+11-a3d4e3b13c6c: 10bit
Encoding settings : wpp / ctu=64 / min-cu-size=8 / max-tu-size=32 / tu-intra-depth=1 / tu-inter-depth=1 / me=1 / subme=2 / merange=57 / no-rect / no-amp / max-merge=2 / temporal-mvp / no-early-skip / rskip / rdpenalty=0 / no-tskip / no-tskip-fast / strong-intra-smoothing / no-lossless / no-cu-lossless / no-constrained-intra / no-fast-intra / open-gop / no-temporal-layers / interlace=0 / keyint=250 / min-keyint=23 / scenecut=40 / rc-lookahead=20 / lookahead-slices=5 / bframes=4 / bframe-bias=0 / b-adapt=2 / ref=3 / limit-refs=3 / no-limit-modes / weightp / no-weightb / aq-mode=1 / qg-size=32 / aq-strength=1.00 / cbqpoffs=0 / crqpoffs=0 / rd=3 / psy-rd=2.00 / rdoq-level=0 / psy-rdoq=0.00 / log2-max-poc-lsb=8 / no-rd-refine / signhide / deblock=0:0 / sao / no-sao-non-deblock / b-pyramid / cutree / no-intra-refresh / rc=2 / pass / bitrate=2500 / qcomp=0.60 / qpmin=0 / qpmax=69 / qpstep=4 / cplxblur=20.0 / qblur=0.5 / ipratio=1.40 / pbratio=1.30
Default : Yes
Forced : No
Audio #1
ID : 2
Format : AAC
Format/Info : Advanced Audio Codec
Format profile : LC
Codec ID : A_AAC
Duration : 2 h 13 min
Bit rate : 395 kb/s
Channel(s) : 8 channels
Channel positions : Front: L C R, Side: L R, Back: L R, LFE
Sampling rate : 48.0 kHz
Frame rate : 46.875 FPS (1024 spf)
Compression mode : Lossy
Delay relative to video : 20 ms
Stream size : 377 MiB (13%)
Language : English
Default : Yes
Forced : No
Audio #2
ID : 3
Format : AAC
Format/Info : Advanced Audio Codec
Format profile : HE-AAC / LC
Codec ID : A_AAC
Duration : 2 h 13 min
Bit rate : 66.2 kb/s
Channel(s) : 2 channels
Channel positions : Front: L R
Sampling rate : 48.0 kHz / 24.0 kHz
Frame rate : 23.438 FPS (1024 spf)
Compression mode : Lossy
Delay relative to video : 40 ms
Stream size : 62.7 MiB (2%)
Title : Commentary
Language : English
Default : No
Forced : No
Text #1
ID : 4
Format : VobSub
Muxing mode : zlib
Codec ID : S_VOBSUB
Codec ID/Info : Picture based subtitle format used on DVDs
Duration : 2 h 2 min
Bit rate : 4 028 b/s
Count of elements : 1026
Stream size : 3.52 MiB (0%)
Language : English
Default : No
Forced : No
Text #2
ID : 5
Format : VobSub
Muxing mode : zlib
Codec ID : S_VOBSUB
Codec ID/Info : Picture based subtitle format used on DVDs
Duration : 2 h 2 min
Bit rate : 4 661 b/s
Count of elements : 1019
Stream size : 4.08 MiB (0%)
Language : German
Default : No
Forced : No
Text #3
ID : 6
Format : VobSub
Muxing mode : zlib
Codec ID : S_VOBSUB
Codec ID/Info : Picture based subtitle format used on DVDs
Duration : 2 h 10 min
Bit rate : 6 754 b/s
Count of elements : 1291
Stream size : 6.33 MiB (0%)
Title : Commentary
Language : German
Default : No
Forced : No
Text #4
ID : 7
Format : VobSub
Muxing mode : zlib
Codec ID : S_VOBSUB
Codec ID/Info : Picture based subtitle format used on DVDs
Duration : 2 h 2 min
Bit rate : 3 867 b/s
Count of elements : 1025
Stream size : 3.40 MiB (0%)
Language : Spanish
Default : No
Forced : No
Menu
00:00:00.000 : :Chapter 01
00:09:45.001 : :Chapter 02
00:18:08.670 : :Chapter 03
00:22:41.735 : :Chapter 04
00:32:16.225 : :Chapter 05
00:37:34.168 : :Chapter 06
00:44:55.859 : :Chapter 07
00:53:45.597 : :Chapter 08
01:02:16.232 : :Chapter 09
01:10:30.017 : :Chapter 10
01:21:04.276 : :Chapter 11
01:28:07.240 : :Chapter 12
01:34:33.376 : :Chapter 13
01:42:53.667 : :Chapter 14
01:51:42.696 : :Chapter 15
02:05:30.814 : :Chapter 16
02:13:14.569 : :Chapter 17
Source InformationGerman Retail Bluray

Files (4):

  • Featurettes / Interviews.mkv (30.3 MB)
  • Featurettes / Making of.mkv (9.3 MB)
  • Featurettes / Trailer.mkv (6 MB)
  • The Ninth Gate 1999 (1080p x265 10bit Tigole).mkv (2.8 GB)
Torrof does not host any content on its servers, but allows his users to search existing torrents for "The Ninth Gate (1999) (1080p Bluray x265 HEVC 10bit AAC 7.1 Tigole) [UTR]" and download it for free from most famous Torrent Trackers: #Btscene