The Sensuous Nurse 1975 Unrated Dual Audio Hindi 480P Dvdrip Phdm

The Sensuous Nurse 1975 UNRATED Dual Audio Hindi 480p DVDRip PHDM Video / Romance

  • 322 MB
  • 0 S
  • 1 L
  • Sep 2016

Download fast (14 free days): Download torrent Magnet link

Description(s):

Btscene

The Sensuous Nurse 1975 UNRATED Dual Audio Hindi  480p DVDRip PHDM
Format                                   : Matroska
Format version                           : Version 4 / Version 2
File size                                : 322 MiB
Duration                                 : 1 h 40 min
Overall bit rate                         : 446 kb/s
Video
ID                                       : 1
Format                                   : AVC
Format/Info                              : Advanced Video Codec
Format profile                           : High@L4
Format settings, CABAC                   : Yes
Format settings, ReFrames                : 4 frames
Codec ID                                 : V_MPEG4/ISO/AVC
Duration                                 : 1 h 40 min
Bit rate                                 : 380 kb/s
Width                                    : 720 pixels
Height                                   : 432 pixels
Display aspect ratio                     : 5:3
Frame rate mode                          : Constant
Frame rate                               : 23.976 (24000/1001) FPS
Color space                              : YUV
Chroma subsampling                       : 4:2:0
Bit depth                                : 8 bits
Scan type                                : Progressive
Bits/(Pixel*Frame)                       : 0.051
Stream size                              : 274 MiB (85%)
Writing library                          : x264 core 142 r2479 dd79a61
Default                                  : Yes
Forced                                   : No
Color range                              : Limited
Audio #1
ID                                       : 2
Format                                   : AAC
Format/Info                              : Advanced Audio Codec
Format profile                           : HE-AAC / LC
Codec ID                                 : A_AAC
Duration                                 : 1 h 40 min
Bit rate                                 : 32.0 kb/s
Channel(s)                               : 2 channels
Channel positions                        : Front: L R
Sampling rate                            : 22.05 kHz / 11.025 kHz
Frame rate                               : 10.767 FPS (1024 spf)
Compression mode                         : Lossy
Delay relative to video                  : -229 ms
Stream size                              : 23.1 MiB (7%)
Title                                    : PHDM
Language                                 : Hindi
Default                                  : Yes
Forced                                   : No
Audio #2
ID                                       : 3
Format                                   : AAC
Format/Info                              : Advanced Audio Codec
Format profile                           : HE-AAC / LC
Codec ID                                 : A_AAC
Duration                                 : 1 h 40 min
Bit rate                                 : 32.0 kb/s
Channel(s)                               : 2 channels
Channel positions                        : Front: L R
Sampling rate                            : 22.05 kHz / 11.025 kHz
Frame rate                               : 10.767 FPS (1024 spf)
Compression mode                         : Lossy
Delay relative to video                  : -229 ms
Stream size                              : 23.1 MiB (7%)
Title                                    : PHDM
Language                                 : English
Default                                  : No
Forced                                   : No
Text
ID                                       : 4
Format                                   : UTF-8
Codec ID                                 : S_TEXT/UTF8
Codec ID/Info                            : UTF-8 Plain Text
Duration                                 : 1 h 39 min
Bit rate                                 : 53 b/s
Count of elements                        : 1466
Stream size                              : 38.6 KiB (0%)
Default                                  : Yes
Forced                                   : No
Menu
00:00:00.000                             : :Chapter 1
00:08:12.575                             : :Chapter 2
00:20:37.402                             : :Chapter 3
00:22:06.199                             : :Chapter 4
00:30:55.103                             : :Chapter 5
00:41:50.591                             : :Chapter 6
00:45:33.188                             : :Chapter 7
00:57:09.968                             : :Chapter 8
01:06:06.045                             : :Chapter 9
01:18:00.342                             : :Chapter 10
01:24:19.012                             : :Chapter 11
01:38:09.175                             : :Chapter 12

Torrentbit

The Sensuous Nurse 1975 UNRATED Dual Audio Hindi  480p DVDRip PHDM Format                                   : Matroska Format version                           : Version 4 / Version 2 File size                                : 322 MiB Duration                                 : 1 h 40 min Overall bit rate                         : 446 kb/s Video ID                                       : 1 Format                                   : AVC Format/Info                              : Advanced Video Codec Format profile                           : /* */ Format settings, CABAC                   : Yes Format settings, ReFrames                : 4 frames Codec ID                                 : V_MPEG4/ISO/AVC Duration                                 : 1 h 40 min Bit rate                                 : 380 kb/s Width                                    : 720 pixels Height                                   : 432 pixels Display aspect ratio                     : 5:3 Frame rate mode                          : Constant Frame rate                               : 23.976 (24000/1001) FPS Color space                              : YUV Chroma subsampling                       : 4:2:0 Bit depth                                : 8 bits Scan type                                : Progressive Bits/(Pixel*Frame)                       : 0.051 Stream size                              : 274 MiB (85%) Writing library                          : x264 core 142 r2479 dd79a61 Default                                  : Yes Forced                                   : No Color range                              : Limited Audio #1 ID                                       : 2 Format                                   : AAC Format/Info                              : Advanced Audio Codec Format profile                           : HE-AAC / LC Codec ID                                 : A_AAC Duration                                 : 1 h 40 min Bit rate                                 : 32.0 kb/s Channel(s)                               : 2 channels Channel positions                        : Front: L R Sampling rate                            : 22.05 kHz / 11.025 kHz Frame rate                               : 10.767 FPS (1024 spf) Compression mode                         : Lossy Delay relative to video                  : -229 ms Stream size                              : 23.1 MiB (7%) Title                                    : PHDM Language                                 : Hindi Default                                  : Yes Forced                                   : No Audio #2 ID                                       : 3 Format                                   : AAC Format/Info                              : Advanced Audio Codec Format profile                           : HE-AAC / LC Codec ID                                 : A_AAC Duration                                 : 1 h 40 min Bit rate                                 : 32.0 kb/s Channel(s)                               : 2 channels Channel positions                        : Front: L R Sampling rate                            : 22.05 kHz / 11.025 kHz Frame rate                               : 10.767 FPS (1024 spf) Compression mode                         : Lossy Delay relative to video                  : -229 ms Stream size                              : 23.1 MiB (7%) Title                                    : PHDM Language                                 : English Default                                  : No Forced                                   : No Text ID                                       : 4 Format                                   : UTF-8 Codec ID                                 : S_TEXT/UTF8 Codec ID/Info                            : UTF-8 Plain Text Duration                                 : 1 h 39 min Bit rate                                 : 53 b/s Count of elements                        : 1466 Stream size                              : 38.6 KiB (0%) Default                                  : Yes Forced                                   : No Menu 00:00:00.000                             : :Chapter 1 00:08:12.575                             : :Chapter 2 00:20:37.402                             : :Chapter 3 00:22:06.199                             : :Chapter 4 00:30:55.103                             : :Chapter 5 00:41:50.591                             : :Chapter 6 00:45:33.188                             : :Chapter 7 00:57:09.968                             : :Chapter 8 01:06:06.045                             : :Chapter 9 01:18:00.342                             : :Chapter 10 01:24:19.012                             : :Chapter 11 01:38:09.175                             : :Chapter 12

GlodlsTo

The Sensuous Nurse 1975 UNRATED Dual Audio Hindi 480p DVDRip PHDM
Format : Matroska
Format version : Version 4 / Version 2
File size : 322 MiB
Duration : 1 h 40 min
Overall bit rate : 446 kb/s
Video
ID : 1
Format : AVC
Format/Info : Advanced Video Codec
Format profile : /* */
Format settings, CABAC : Yes
Format settings, ReFrames : 4 frames
Codec ID : V_MPEG4/ISO/AVC
Duration : 1 h 40 min
Bit rate : 380 kb/s
Width : 720 pixels
Height : 432 pixels
Display aspect ratio : 5:3
Frame rate mode : Constant
Frame rate : 23.976 (24000/1001) FPS
Color space : YUV
Chroma subsampling : 4:2:0
Bit depth : 8 bits
Scan type : Progressive
Bits/(Pixel*Frame) : 0.051
Stream size : 274 MiB (85%)
Writing library : x264 core 142 r2479 dd79a61
Default : Yes
Forced : No
Color range : Limited
Audio #1
ID : 2
Format : AAC
Format/Info : Advanced Audio Codec
Format profile : HE-AAC / LC
Codec ID : A_AAC
Duration : 1 h 40 min
Bit rate : 32.0 kb/s
Channel(s) : 2 channels
Channel positions : Front: L R
Sampling rate : 22.05 kHz / 11.025 kHz
Frame rate : 10.767 FPS (1024 spf)
Compression mode : Lossy
Delay relative to video : -229 ms
Stream size : 23.1 MiB (7%)
Title : PHDM
Language : Hindi
Default : Yes
Forced : No
Audio #2
ID : 3
Format : AAC
Format/Info : Advanced Audio Codec
Format profile : HE-AAC / LC
Codec ID : A_AAC
Duration : 1 h 40 min
Bit rate : 32.0 kb/s
Channel(s) : 2 channels
Channel positions : Front: L R
Sampling rate : 22.05 kHz / 11.025 kHz
Frame rate : 10.767 FPS (1024 spf)
Compression mode : Lossy
Delay relative to video : -229 ms
Stream size : 23.1 MiB (7%)
Title : PHDM
Language : English
Default : No
Forced : No
Text
ID : 4
Format : UTF-8
Codec ID : S_TEXT/UTF8
Codec ID/Info : UTF-8 Plain Text
Duration : 1 h 39 min
Bit rate : 53 b/s
Count of elements : 1466
Stream size : 38.6 KiB (0%)
Default : Yes
Forced : No
Menu
00:00:00.000 : :Chapter 1
00:08:12.575 : :Chapter 2
00:20:37.402 : :Chapter 3
00:22:06.199 : :Chapter 4
00:30:55.103 : :Chapter 5
00:41:50.591 : :Chapter 6
00:45:33.188 : :Chapter 7
00:57:09.968 : :Chapter 8
01:06:06.045 : :Chapter 9
01:18:00.342 : :Chapter 10
01:24:19.012 : :Chapter 11
01:38:09.175 : :Chapter 12

Yourbittorrent

The Sensuous Nurse (L'infermiera) (The Secrets of a Sensuous Nurse) (Nurse Anna)As an aging widower begins suffering from heart trouble, his greedy heirs hope to speed him on his way by hiring a super-seductive nurse to get his pulse racing. Their plan backfires, though, as the young beauty begins to fall in love with the old man.

Files (1):

  • The Sensuous Nurse 1975 UNRATED Dual Audio Hindi 480p DVDRip PHDM (322 MB)
Torrof does not host any content on its servers, but allows his users to search existing torrents for "The Sensuous Nurse 1975 UNRATED Dual Audio Hindi 480p DVDRip PHDM" and download it for free from most famous Torrent Trackers: #Btscene, #Torrentbit, #Limetorrents, #GlodlsTo, #Seedpeer, #Yourbittorrent