The Whole Truth 2016 French Bdrip X264

The Whole Truth 2016 FRENCH BDRip x264 Video / BD / HD / X264

  • 357 MB
  • 5 S
  • 0 L
  • Jan 2017

Download fast (14 free days): Download torrent Magnet link

Description(s):

Ahashare

The.Whole.Truth.2016.FRENCH.BDRip.x264-PRiDEHD
ImDb: http://www.imdb.com/title/tt3503406
Complete name : phd-wholetruth.sd.mkv
Format : Matroska
Format version : Version 4 / Version 2
File size : 357 MiB
Duration : 1 h 33 min
Overall bit rate : 532 kb/s
Encoded date : UTC 2017-01-10 22:03:10
Writing application : mkvmerge v9.6.0 ('Slave To Your Mind') 64bit
Writing library : libebml v1.3.4 + libmatroska v1.4.5
Video
ID : 1
Format : AVC
Format/Info : Advanced Video Codec
Format profile : High@L3.1
Format settings, CABAC : Yes
Format settings, ReFrames : 5 frames
Codec ID : V_MPEG4/ISO/AVC
Duration : 1 h 33 min
Bit rate : 413 kb/s
Width : 720 pixels
Height : 302 pixels
Display aspect ratio : 2.40:1
Frame rate mode : Constant
Frame rate : 23.976 (24000/1001) FPS
Color space : YUV
Chroma subsampling : 4:2:0
Bit depth : 8 bits
Scan type : Progressive
Bits/(Pixel*Frame) : 0.079
Stream size : 277 MiB (78%)
Writing library : x264 core 148 r2744 b97ae06
Encoding settings : cabac=1 / ref=5 / deblock=1:-2:-2 / analyse=0x3:0x113 / me=hex / subme=8 / psy=1 / psy_rd=1.00:0.00 / mixed_ref=1 / me_range=16 / chroma_me=1 / trellis=2 / 8x8dct=1 / cqm=0 / deadzone=21,11 / fast_pskip=1 / chroma_qp_offset=-2 / threads=9 / lookahead_threads=1 / sliced_threads=0 / nr=0 / decimate=1 / interlaced=0 / bluray_compat=0 / constrained_intra=0 / bframes=3 / b_pyramid=2 / b_adapt=1 / b_bias=0 / direct=3 / weightb=1 / open_gop=0 / weightp=2 / keyint=250 / keyint_min=23 / scenecut=40 / intra_refresh=0 / rc_lookahead=50 / rc=crf / mbtree=1 / crf=19.0 / qcomp=0.60 / qpmin=0 / qpmax=69 / qpstep=4 / ip_ratio=1.40 / aq=1:0.70
Language : English
Default : Yes
Forced : No
Color range : Limited
Matrix coefficients : BT.709
Audio
ID : 2
Format : AAC
Format/Info : Advanced Audio Codec
Format profile : LC
Codec ID : A_AAC
Duration : 1 h 33 min
Bit rate : 117 kb/s
Channel(s) : 2 channels
Channel positions : Front: L R
Sampling rate : 48.0 kHz
Frame rate : 46.875 FPS (1024 spf)
Compression mode : Lossy
Delay relative to video : 9 ms
Stream size : 78.8 MiB (22%)
Title : French AAC
Language : French
Default : Yes
Forced : No
Text
ID : 3
Format : UTF-8
Codec ID : S_TEXT/UTF8
Codec ID/Info : UTF-8 Plain Text
Duration : 5 s 463 ms
Bit rate : 24 b/s
Count of elements : 1
Stream size : 17.0 Bytes (0%)
Title : Forced
Language : French
Default : Yes
Forced : No
Menu
00:00:00.000 : en:00:00:00.000
00:03:52.816 : en:00:03:52.816
00:12:03.014 : en:00:12:03.014
00:17:55.783 : en:00:17:55.783
00:23:10.222 : en:00:23:10.222
00:32:01.837 : en:00:32:01.837
00:39:44.507 : en:00:39:44.507
00:44:14.777 : en:00:44:14.777
00:52:42.201 : en:00:52:42.201
00:58:18.912 : en:00:58:18.912
01:02:03.803 : en:01:02:03.803
01:08:06.416 : en:01:08:06.416
01:13:12.722 : en:01:13:12.722
01:17:33.983 : en:01:17:33.983
01:24:17.052 : en:01:24:17.052
01:28:26.885 : en:01:28:26.885
Click Image To View Full Size
Click To View Screenshot
Click To View Screenshot
Click To View Screenshot

GlodlsTo

The.Whole.Truth.2016.FRENCH.BDRip.x264-PRiDEHD
ImDb: http://www.imdb.com/title/tt3503406
Complete name : phd-wholetruth.sd.mkv
Format : Matroska
Format version : Version 4 / Version 2
File size : 357 MiB
Duration : 1 h 33 min
Overall bit rate : 532 kb/s
Encoded date : UTC 2017-01-10 22:03:10
Writing application : mkvmerge v9.6.0 ('Slave To Your Mind') 64bit
Writing library : libebml v1.3.4 + libmatroska v1.4.5
Video
ID : 1
Format : AVC
Format/Info : Advanced Video Codec
Format profile : /* */
Format settings, CABAC : Yes
Format settings, ReFrames : 5 frames
Codec ID : V_MPEG4/ISO/AVC
Duration : 1 h 33 min
Bit rate : 413 kb/s
Width : 720 pixels
Height : 302 pixels
Display aspect ratio : 2.40:1
Frame rate mode : Constant
Frame rate : 23.976 (24000/1001) FPS
Color space : YUV
Chroma subsampling : 4:2:0
Bit depth : 8 bits
Scan type : Progressive
Bits/(Pixel*Frame) : 0.079
Stream size : 277 MiB (78%)
Writing library : x264 core 148 r2744 b97ae06
Encoding settings : cabac=1 / ref=5 / deblock=1:-2:-2 / analyse=0x3:0x113 / me=hex / subme=8 / psy=1 / psy_rd=1.00:0.00 / mixed_ref=1 / me_range=16 / chroma_me=1 / trellis=2 / 8x8dct=1 / cqm=0 / deadzone=21,11 / fast_pskip=1 / chroma_qp_offset=-2 / threads=9 / lookahead_threads=1 / sliced_threads=0 / nr=0 / decimate=1 / interlaced=0 / bluray_compat=0 / constrained_intra=0 / bframes=3 / b_pyramid=2 / b_adapt=1 / b_bias=0 / direct=3 / weightb=1 / open_gop=0 / weightp=2 / keyint=250 / keyint_min=23 / scenecut=40 / intra_refresh=0 / rc_lookahead=50 / rc=crf / mbtree=1 / crf=19.0 / qcomp=0.60 / qpmin=0 / qpmax=69 / qpstep=4 / ip_ratio=1.40 / aq=1:0.70
Language : English
Default : Yes
Forced : No
Color range : Limited
Matrix coefficients : BT.709
Audio
ID : 2
Format : AAC
Format/Info : Advanced Audio Codec
Format profile : LC
Codec ID : A_AAC
Duration : 1 h 33 min
Bit rate : 117 kb/s
Channel(s) : 2 channels
Channel positions : Front: L R
Sampling rate : 48.0 kHz
Frame rate : 46.875 FPS (1024 spf)
Compression mode : Lossy
Delay relative to video : 9 ms
Stream size : 78.8 MiB (22%)
Title : French AAC
Language : French
Default : Yes
Forced : No
Text
ID : 3
Format : UTF-8
Codec ID : S_TEXT/UTF8
Codec ID/Info : UTF-8 Plain Text
Duration : 5 s 463 ms
Bit rate : 24 b/s
Count of elements : 1
Stream size : 17.0 Bytes (0%)
Title : Forced
Language : French
Default : Yes
Forced : No
Menu
00:00:00.000 : en:00:00:00.000
00:03:52.816 : en:00:03:52.816
00:12:03.014 : en:00:12:03.014
00:17:55.783 : en:00:17:55.783
00:23:10.222 : en:00:23:10.222
00:32:01.837 : en:00:32:01.837
00:39:44.507 : en:00:39:44.507
00:44:14.777 : en:00:44:14.777
00:52:42.201 : en:00:52:42.201
00:58:18.912 : en:00:58:18.912
01:02:03.803 : en:01:02:03.803
01:08:06.416 : en:01:08:06.416
01:13:12.722 : en:01:13:12.722
01:17:33.983 : en:01:17:33.983
01:24:17.052 : en:01:24:17.052
01:28:26.885 : en:01:28:26.885
Click Image To View Full Size
Click To View Screenshot
Click To View Screenshot
Click To View Screenshot

Torrentbit

The.Whole.Truth.2016.FRENCH.BDRip.x264-PRiDEHDImDb: http://www.imdb.com/title/tt3503406Complete name : phd-wholetruth.sd.mkvFormat : MatroskaFormat version : Version 4 / Version 2File size : 357 MiBDuration : 1 h 33 minOverall bit rate : 532 kb/sEncoded date : UTC 2017-01-10 22:03:10Writing application : mkvmerge v9.6.0 ('Slave To Your Mind') 64bitWriting library : libebml v1.3.4 + libmatroska v1.4.5VideoID : 1Format : AVCFormat/Info : Advanced Video CodecFormat profile : /* */Format settings, CABAC : YesFormat settings, ReFrames : 5 framesCodec ID : V_MPEG4/ISO/AVCDuration : 1 h 33 minBit rate : 413 kb/sWidth : 720 pixelsHeight : 302 pixelsDisplay aspect ratio : 2.40:1Frame rate mode : ConstantFrame rate : 23.976 (24000/1001) FPSColor space : YUVChroma subsampling : 4:2:0Bit depth : 8 bitsScan type : ProgressiveBits/(Pixel*Frame) : 0.079Stream size : 277 MiB (78%)Writing library : x264 core 148 r2744 b97ae06Encoding settings : cabac=1 / ref=5 / deblock=1:-2:-2 / analyse=0x3:0x113 / me=hex / subme=8 / psy=1 / psy_rd=1.00:0.00 / mixed_ref=1 / me_range=16 / chroma_me=1 / trellis=2 / 8x8dct=1 / cqm=0 / deadzone=21,11 / fast_pskip=1 / chroma_qp_offset=-2 / threads=9 / lookahead_threads=1 / sliced_threads=0 / nr=0 / decimate=1 / interlaced=0 / bluray_compat=0 / constrained_intra=0 / bframes=3 / b_pyramid=2 / b_adapt=1 / b_bias=0 / direct=3 / weightb=1 / open_gop=0 / weightp=2 / keyint=250 / keyint_min=23 / scenecut=40 / intra_refresh=0 / rc_lookahead=50 / rc=crf / mbtree=1 / crf=19.0 / qcomp=0.60 / qpmin=0 / qpmax=69 / qpstep=4 / ip_ratio=1.40 / aq=1:0.70Language : EnglishDefault : YesForced : NoColor range : LimitedMatrix coefficients : BT.709AudioID : 2Format : AACFormat/Info : Advanced Audio CodecFormat profile : LCCodec ID : A_AACDuration : 1 h 33 minBit rate : 117 kb/sChannel(s) : 2 channelsChannel positions : Front: L RSampling rate : 48.0 kHzFrame rate : 46.875 FPS (1024 spf)Compression mode : LossyDelay relative to video : 9 msStream size : 78.8 MiB (22%)Title : French AACLanguage : FrenchDefault : YesForced : NoTextID : 3Format : UTF-8Codec ID : S_TEXT/UTF8Codec ID/Info : UTF-8 Plain TextDuration : 5 s 463 msBit rate : 24 b/sCount of elements : 1Stream size : 17.0 Bytes (0%)Title : ForcedLanguage : FrenchDefault : YesForced : NoMenu00:00:00.000 : en:00:00:00.00000:03:52.816 : en:00:03:52.81600:12:03.014 : en:00:12:03.01400:17:55.783 : en:00:17:55.78300:23:10.222 : en:00:23:10.22200:32:01.837 : en:00:32:01.83700:39:44.507 : en:00:39:44.50700:44:14.777 : en:00:44:14.77700:52:42.201 : en:00:52:42.20100:58:18.912 : en:00:58:18.91201:02:03.803 : en:01:02:03.80301:08:06.416 : en:01:08:06.41601:13:12.722 : en:01:13:12.72201:17:33.983 : en:01:17:33.98301:24:17.052 : en:01:24:17.05201:28:26.885 : en:01:28:26.885Click Image To View Full SizeClick To View Screenshot Click To View Screenshot Click To View Screenshot

Files (5):

  • Please Support!! Read More!!!.txt (232 B)
  • Torrent Downloaded From 1337x.to.txt (69 B)
  • Torrent Downloaded From ExtraTorrent.cc.txt (446 B)
  • Torrent downloaded from AhaShare.com.txt (59 B)
  • phd-wholetruth.sd[PRiME].mkv (357 MB)
Torrof does not host any content on its servers, but allows his users to search existing torrents for "The Whole Truth 2016 FRENCH BDRip x264" and download it for free from most famous Torrent Trackers: #Ahashare, #GlodlsTo, #Torrentbit, #Limetorrents, #Seedpeer, #Yourbittorrent