The Whole Truth 2016 French 720P Bluray X264

The Whole Truth 2016 FRENCH 720p BluRay x264 Video / BD / HD / X264

  • 4.4 GB
  • 4 S
  • 4 L
  • Jan 2017

Download fast (14 free days): Download torrent Magnet link

Description(s):

Ahashare

The.Whole.Truth.2016.FRENCH.720p.BluRay.x264-LOST
ImDb: http://www.imdb.com/title/tt3503406
Complete name : the.whole.truth.2016.french.720p.bluray.x264-lost.mkv
Format : Matroska
Format version : Version 2
File size : 4.37 GiB
Duration : 1 h 33 min
Overall bit rate : 6 667 kb/s
Writing application : mkvmerge v6.6.0 ('The Edge Of The In Between') built on Dec 1 2013 17:55:00
Writing library : libebml v1.3.0 + libmatroska v1.4.1
Video
ID : 1
Format : AVC
Format/Info : Advanced Video Codec
Format profile : High@L4.1
Format settings, CABAC : Yes
Format settings, ReFrames : 5 frames
Codec ID : V_MPEG4/ISO/AVC
Duration : 1 h 33 min
Bit rate : 5 158 kb/s
Width : 1 280 pixels
Height : 536 pixels
Display aspect ratio : 2.40:1
Frame rate mode : Constant
Frame rate : 23.976 (24000/1001) FPS
Color space : YUV
Chroma subsampling : 4:2:0
Bit depth : 8 bits
Scan type : Progressive
Bits/(Pixel*Frame) : 0.314
Stream size : 3.29 GiB (75%)
Writing library : x264 core 148 r2744 b97ae06
Encoding settings : cabac=1 / ref=5 / deblock=1:0:0 / analyse=0x3:0x113 / me=umh / subme=8 / psy=1 / psy_rd=1.00:0.00 / mixed_ref=1 / me_range=16 / chroma_me=1 / trellis=1 / 8x8dct=1 / cqm=0 / deadzone=21,11 / fast_pskip=1 / chroma_qp_offset=-2 / threads=17 / lookahead_threads=2 / sliced_threads=0 / nr=0 / decimate=1 / interlaced=0 / bluray_compat=0 / constrained_intra=0 / bframes=3 / b_pyramid=2 / b_adapt=2 / b_bias=0 / direct=3 / weightb=1 / open_gop=0 / weightp=2 / keyint=240 / keyint_min=24 / scenecut=40 / intra_refresh=0 / rc_lookahead=50 / rc=2pass / mbtree=1 / bitrate=5158 / ratetol=1.0 / qcomp=0.60 / qpmin=0 / qpmax=69 / qpstep=4 / cplxblur=20.0 / qblur=0.5 / ip_ratio=1.40 / aq=1:1.00
Language : English
Default : Yes
Forced : No
Audio
ID : 2
Format : DTS
Format/Info : Digital Theater Systems
Mode : 16
Format settings, Endianness : Big
Codec ID : A_DTS
Duration : 1 h 33 min
Bit rate mode : Constant
Bit rate : 1 509 kb/s
Channel(s) : 6 channels
Channel positions : Front: L C R, Side: L R, LFE
Sampling rate : 48.0 kHz
Frame rate : 93.750 FPS (512 spf)
Bit depth : 24 bits
Compression mode : Lossy
Stream size : 1 012 MiB (23%)
Title : French DTS 1509kbps
Language : French
Default : Yes
Forced : No
Text
ID : 3
Format : UTF-8
Codec ID : S_TEXT/UTF8
Codec ID/Info : UTF-8 Plain Text
Title : Forced
Language : French
Default : Yes
Forced : Yes
Menu
00:00:00.000 : en:00:00:00.000
00:03:52.816 : en:00:03:52.816
00:12:03.014 : en:00:12:03.014
00:17:55.783 : en:00:17:55.783
00:23:10.222 : en:00:23:10.222
00:32:01.837 : en:00:32:01.837
00:39:44.507 : en:00:39:44.507
00:44:14.777 : en:00:44:14.777
00:52:42.201 : en:00:52:42.201
00:58:18.912 : en:00:58:18.912
01:02:03.803 : en:01:02:03.803
01:08:06.416 : en:01:08:06.416
01:13:12.722 : en:01:13:12.722
01:17:33.983 : en:01:17:33.983
01:24:17.052 : en:01:24:17.052
01:28:26.885 : en:01:28:26.885
Click Image To View Full Size
Click To View Screenshot
Click To View Screenshot
Click To View Screenshot

GlodlsTo

The.Whole.Truth.2016.FRENCH.720p.BluRay.x264-LOST
ImDb: http://www.imdb.com/title/tt3503406
Complete name : the.whole.truth.2016.french.720p.bluray.x264-lost.mkv
Format : Matroska
Format version : Version 2
File size : 4.37 GiB
Duration : 1 h 33 min
Overall bit rate : 6 667 kb/s
Writing application : mkvmerge v6.6.0 ('The Edge Of The In Between') built on Dec 1 2013 17:55:00
Writing library : libebml v1.3.0 + libmatroska v1.4.1
Video
ID : 1
Format : AVC
Format/Info : Advanced Video Codec
Format profile : /* */
Format settings, CABAC : Yes
Format settings, ReFrames : 5 frames
Codec ID : V_MPEG4/ISO/AVC
Duration : 1 h 33 min
Bit rate : 5 158 kb/s
Width : 1 280 pixels
Height : 536 pixels
Display aspect ratio : 2.40:1
Frame rate mode : Constant
Frame rate : 23.976 (24000/1001) FPS
Color space : YUV
Chroma subsampling : 4:2:0
Bit depth : 8 bits
Scan type : Progressive
Bits/(Pixel*Frame) : 0.314
Stream size : 3.29 GiB (75%)
Writing library : x264 core 148 r2744 b97ae06
Encoding settings : cabac=1 / ref=5 / deblock=1:0:0 / analyse=0x3:0x113 / me=umh / subme=8 / psy=1 / psy_rd=1.00:0.00 / mixed_ref=1 / me_range=16 / chroma_me=1 / trellis=1 / 8x8dct=1 / cqm=0 / deadzone=21,11 / fast_pskip=1 / chroma_qp_offset=-2 / threads=17 / lookahead_threads=2 / sliced_threads=0 / nr=0 / decimate=1 / interlaced=0 / bluray_compat=0 / constrained_intra=0 / bframes=3 / b_pyramid=2 / b_adapt=2 / b_bias=0 / direct=3 / weightb=1 / open_gop=0 / weightp=2 / keyint=240 / keyint_min=24 / scenecut=40 / intra_refresh=0 / rc_lookahead=50 / rc=2pass / mbtree=1 / bitrate=5158 / ratetol=1.0 / qcomp=0.60 / qpmin=0 / qpmax=69 / qpstep=4 / cplxblur=20.0 / qblur=0.5 / ip_ratio=1.40 / aq=1:1.00
Language : English
Default : Yes
Forced : No
Audio
ID : 2
Format : DTS
Format/Info : Digital Theater Systems
Mode : 16
Format settings, Endianness : Big
Codec ID : A_DTS
Duration : 1 h 33 min
Bit rate mode : Constant
Bit rate : 1 509 kb/s
Channel(s) : 6 channels
Channel positions : Front: L C R, Side: L R, LFE
Sampling rate : 48.0 kHz
Frame rate : 93.750 FPS (512 spf)
Bit depth : 24 bits
Compression mode : Lossy
Stream size : 1 012 MiB (23%)
Title : French DTS 1509kbps
Language : French
Default : Yes
Forced : No
Text
ID : 3
Format : UTF-8
Codec ID : S_TEXT/UTF8
Codec ID/Info : UTF-8 Plain Text
Title : Forced
Language : French
Default : Yes
Forced : Yes
Menu
00:00:00.000 : en:00:00:00.000
00:03:52.816 : en:00:03:52.816
00:12:03.014 : en:00:12:03.014
00:17:55.783 : en:00:17:55.783
00:23:10.222 : en:00:23:10.222
00:32:01.837 : en:00:32:01.837
00:39:44.507 : en:00:39:44.507
00:44:14.777 : en:00:44:14.777
00:52:42.201 : en:00:52:42.201
00:58:18.912 : en:00:58:18.912
01:02:03.803 : en:01:02:03.803
01:08:06.416 : en:01:08:06.416
01:13:12.722 : en:01:13:12.722
01:17:33.983 : en:01:17:33.983
01:24:17.052 : en:01:24:17.052
01:28:26.885 : en:01:28:26.885
Click Image To View Full Size
Click To View Screenshot
Click To View Screenshot
Click To View Screenshot

Torrentbit

The.Whole.Truth.2016.FRENCH.720p.BluRay.x264-LOSTImDb: http://www.imdb.com/title/tt3503406Complete name : the.whole.truth.2016.french.720p.bluray.x264-lost.mkvFormat : MatroskaFormat version : Version 2File size : 4.37 GiBDuration : 1 h 33 minOverall bit rate : 6 667 kb/sWriting application : mkvmerge v6.6.0 ('The Edge Of The In Between') built on Dec 1 2013 17:55:00Writing library : libebml v1.3.0 + libmatroska v1.4.1VideoID : 1Format : AVCFormat/Info : Advanced Video CodecFormat profile : /* */Format settings, CABAC : YesFormat settings, ReFrames : 5 framesCodec ID : V_MPEG4/ISO/AVCDuration : 1 h 33 minBit rate : 5 158 kb/sWidth : 1 280 pixelsHeight : 536 pixelsDisplay aspect ratio : 2.40:1Frame rate mode : ConstantFrame rate : 23.976 (24000/1001) FPSColor space : YUVChroma subsampling : 4:2:0Bit depth : 8 bitsScan type : ProgressiveBits/(Pixel*Frame) : 0.314Stream size : 3.29 GiB (75%)Writing library : x264 core 148 r2744 b97ae06Encoding settings : cabac=1 / ref=5 / deblock=1:0:0 / analyse=0x3:0x113 / me=umh / subme=8 / psy=1 / psy_rd=1.00:0.00 / mixed_ref=1 / me_range=16 / chroma_me=1 / trellis=1 / 8x8dct=1 / cqm=0 / deadzone=21,11 / fast_pskip=1 / chroma_qp_offset=-2 / threads=17 / lookahead_threads=2 / sliced_threads=0 / nr=0 / decimate=1 / interlaced=0 / bluray_compat=0 / constrained_intra=0 / bframes=3 / b_pyramid=2 / b_adapt=2 / b_bias=0 / direct=3 / weightb=1 / open_gop=0 / weightp=2 / keyint=240 / keyint_min=24 / scenecut=40 / intra_refresh=0 / rc_lookahead=50 / rc=2pass / mbtree=1 / bitrate=5158 / ratetol=1.0 / qcomp=0.60 / qpmin=0 / qpmax=69 / qpstep=4 / cplxblur=20.0 / qblur=0.5 / ip_ratio=1.40 / aq=1:1.00Language : EnglishDefault : YesForced : NoAudioID : 2Format : DTSFormat/Info : Digital Theater SystemsMode : 16Format settings, Endianness : BigCodec ID : A_DTSDuration : 1 h 33 minBit rate mode : ConstantBit rate : 1 509 kb/sChannel(s) : 6 channelsChannel positions : Front: L C R, Side: L R, LFESampling rate : 48.0 kHzFrame rate : 93.750 FPS (512 spf)Bit depth : 24 bitsCompression mode : LossyStream size : 1 012 MiB (23%)Title : French DTS 1509kbpsLanguage : FrenchDefault : YesForced : NoTextID : 3Format : UTF-8Codec ID : S_TEXT/UTF8Codec ID/Info : UTF-8 Plain TextTitle : ForcedLanguage : FrenchDefault : YesForced : YesMenu00:00:00.000 : en:00:00:00.00000:03:52.816 : en:00:03:52.81600:12:03.014 : en:00:12:03.01400:17:55.783 : en:00:17:55.78300:23:10.222 : en:00:23:10.22200:32:01.837 : en:00:32:01.83700:39:44.507 : en:00:39:44.50700:44:14.777 : en:00:44:14.77700:52:42.201 : en:00:52:42.20100:58:18.912 : en:00:58:18.91201:02:03.803 : en:01:02:03.80301:08:06.416 : en:01:08:06.41601:13:12.722 : en:01:13:12.72201:17:33.983 : en:01:17:33.98301:24:17.052 : en:01:24:17.05201:28:26.885 : en:01:28:26.885Click Image To View Full SizeClick To View Screenshot Click To View Screenshot Click To View Screenshot

Files (6):

  • Please Support!! Read More!!!.txt (232 B)
  • Sample / the.whole.truth.2016.french.720p.bluray.x264-lost.sample[PRiME].mkv (49 MB)
  • Torrent Downloaded From 1337x.to.txt (69 B)
  • Torrent Downloaded From ExtraTorrent.cc.txt (446 B)
  • Torrent downloaded from AhaShare.com.txt (59 B)
  • the.whole.truth.2016.french.720p.bluray.x264-lost[PRiME].mkv (4.4 GB)

show full list …

collapse the list

Torrof does not host any content on its servers, but allows his users to search existing torrents for "The Whole Truth 2016 FRENCH 720p BluRay x264" and download it for free from most famous Torrent Trackers: #Ahashare, #GlodlsTo, #Torrentbit, #Torrentroom, #Limetorrents, #Yourbittorrent