Undercover.hooligan.2016.hdrip.xvid.ac3 Evo[Prime]

Undercover.Hooligan.2016.HDRip.XviD.AC3-EVO[PRiME] Video / BD / HD / X264

  • 1.4 GB
  • 1 S
  • 0 L
  • Jan 2017

Download fast (14 free days): Download torrent Magnet link

Description(s):

Ahashare

Undercover.Hooligan.2016.HDRip.XviD.AC3-EVO
ImDb: http://www.imdb.com/title/tt3741150
Complete name : Undercover.Hooligan.2016.HDRip.XviD.AC3-EVO.avi
Format : AVI
Format/Info : Audio Video Interleave
File size : 1.35 GiB
Duration : 1 h 30 min
Overall bit rate : 2 145 kb/s
Writing library : VirtualDub build 32593/release
Video
ID : 0
Format : MPEG-4 Visual
Format profile : Advanced Simple@L5
Format settings, BVOP : 2
Format settings, QPel : No
Format settings, GMC : No warppoints
Format settings, Matrix : Default (H.263)
Muxing mode : Packed bitstream
Codec ID : XVID
Codec ID/Hint : XviD
Duration : 1 h 30 min
Bit rate : 1 751 kb/s
Width : 720 pixels
Height : 304 pixels
Display aspect ratio : 2.35:1
Frame rate : 25.000 FPS
Color space : YUV
Chroma subsampling : 4:2:0
Bit depth : 8 bits
Scan type : Progressive
Compression mode : Lossy
Bits/(Pixel*Frame) : 0.320
Stream size : 1.10 GiB (82%)
Writing library : XviD 66
Audio
ID : 1
Format : AC-3
Format/Info : Audio Coding 3
Mode extension : CM (complete main)
Format settings, Endianness : Big
Codec ID : 2000
Duration : 1 h 30 min
Bit rate mode : Constant
Bit rate : 384 kb/s
Channel(s) : 6 channels
Channel positions : Front: L C R, Side: L R, LFE
Sampling rate : 48.0 kHz
Frame rate : 31.250 FPS (1536 spf)
Compression mode : Lossy
Stream size : 247 MiB (18%)
Alignment : Aligned on interleaves
Interleave, duration : 40 ms (1.00 video frame)
Interleave, preload duration : 512 ms
Click Image To View Full Size
Click To View Screenshot
Click To View Screenshot
Click To View Screenshot

Torrentbit

Undercover.Hooligan.2016.HDRip.XviD.AC3-EVOImDb: http://www.imdb.com/title/tt3741150Complete name : Undercover.Hooligan.2016.HDRip.XviD.AC3-EVO.aviFormat : AVIFormat/Info : Audio Video InterleaveFile size : 1.35 GiBDuration : 1 h 30 minOverall bit rate : 2 145 kb/sWriting library : VirtualDub build 32593/releaseVideoID : 0Format : MPEG-4 VisualFormat profile : Advanced /* */Format settings, BVOP : 2Format settings, QPel : NoFormat settings, GMC : No warppointsFormat settings, Matrix : Default (H.263)Muxing mode : Packed bitstreamCodec ID : XVIDCodec ID/Hint : XviDDuration : 1 h 30 minBit rate : 1 751 kb/sWidth : 720 pixelsHeight : 304 pixelsDisplay aspect ratio : 2.35:1Frame rate : 25.000 FPSColor space : YUVChroma subsampling : 4:2:0Bit depth : 8 bitsScan type : ProgressiveCompression mode : LossyBits/(Pixel*Frame) : 0.320Stream size : 1.10 GiB (82%)Writing library : XviD 66AudioID : 1Format : AC-3Format/Info : Audio Coding 3Mode extension : CM (complete main)Format settings, Endianness : BigCodec ID : 2000Duration : 1 h 30 minBit rate mode : ConstantBit rate : 384 kb/sChannel(s) : 6 channelsChannel positions : Front: L C R, Side: L R, LFESampling rate : 48.0 kHzFrame rate : 31.250 FPS (1536 spf)Compression mode : LossyStream size : 247 MiB (18%)Alignment : Aligned on interleavesInterleave, duration : 40 ms (1.00 video frame)Interleave, preload duration : 512 msClick Image To View Full SizeClick To View Screenshot Click To View Screenshot Click To View Screenshot

GlodlsTo

Undercover.Hooligan.2016.HDRip.XviD.AC3-EVO
ImDb: http://www.imdb.com/title/tt3741150
Complete name : Undercover.Hooligan.2016.HDRip.XviD.AC3-EVO.avi
Format : AVI
Format/Info : Audio Video Interleave
File size : 1.35 GiB
Duration : 1 h 30 min
Overall bit rate : 2 145 kb/s
Writing library : VirtualDub build 32593/release
Video
ID : 0
Format : MPEG-4 Visual
Format profile : Advanced /* */
Format settings, BVOP : 2
Format settings, QPel : No
Format settings, GMC : No warppoints
Format settings, Matrix : Default (H.263)
Muxing mode : Packed bitstream
Codec ID : XVID
Codec ID/Hint : XviD
Duration : 1 h 30 min
Bit rate : 1 751 kb/s
Width : 720 pixels
Height : 304 pixels
Display aspect ratio : 2.35:1
Frame rate : 25.000 FPS
Color space : YUV
Chroma subsampling : 4:2:0
Bit depth : 8 bits
Scan type : Progressive
Compression mode : Lossy
Bits/(Pixel*Frame) : 0.320
Stream size : 1.10 GiB (82%)
Writing library : XviD 66
Audio
ID : 1
Format : AC-3
Format/Info : Audio Coding 3
Mode extension : CM (complete main)
Format settings, Endianness : Big
Codec ID : 2000
Duration : 1 h 30 min
Bit rate mode : Constant
Bit rate : 384 kb/s
Channel(s) : 6 channels
Channel positions : Front: L C R, Side: L R, LFE
Sampling rate : 48.0 kHz
Frame rate : 31.250 FPS (1536 spf)
Compression mode : Lossy
Stream size : 247 MiB (18%)
Alignment : Aligned on interleaves
Interleave, duration : 40 ms (1.00 video frame)
Interleave, preload duration : 512 ms
Click Image To View Full Size
Click To View Screenshot
Click To View Screenshot
Click To View Screenshot

Files (6):

  • Please Support!! Read More!!!.txt (232 B)
  • Sample / sample[PRiME].avi (28.9 MB)
  • Torrent Downloaded From 1337x.to.txt (69 B)
  • Torrent Downloaded From ExtraTorrent.cc.txt (446 B)
  • Torrent downloaded from AhaShare.com.txt (59 B)
  • Undercover.Hooligan.2016.HDRip.XviD.AC3-EVO[PRiME].avi (1.3 GB)

show full list …

collapse the list

Torrof does not host any content on its servers, but allows his users to search existing torrents for "Undercover.Hooligan.2016.HDRip.XviD.AC3-EVO[PRiME]" and download it for free from most famous Torrent Trackers: #Ahashare, #Torrentbit, #GlodlsTo, #Limetorrents, #Yourbittorrent, #Btscene, #Torrentroom