When The Game Stands Tall 2014 720P Hdcam First Eng X264 Pimp403

When The Game Stands Tall 2014 720p HDCAM FIRST ENG X264 Pimp403 Video / Sports Related

  • 2.4 GB
  • 2 S
  • 0 L
  • Oct 2014

Download fast (14 free days): Download torrent Magnet link

Description(s):

Btscene

SOURCE IS SHOP3001...THANKS.....FOR THE FIRST VERSION THIS CAM IS VERY GOOD...VIDEO WAS SHAKY FOR LIKE THE FIRST 30 SECONDS AFTER THAT IT STRAIGHTENS OUT.....HAD TO ADJUST THE CONTRAST AND FIX THE FLICKERING THAT IT HAS HERE AND THERE AND ALSO BRIGHTENED A LITTLE BIT BUT ONLY THE DARK SCENES.....AUDIO WAS A LITTLE HOLLOW FIXED AND SYNCED IT UP WELL............ENJOY.....PIMP4003
FOR REQUESTS, EXCLUSIVE MOVIES AND SUPER FAST SPEEDS AND FOR SCREENSHOTS AND SAMPLE....CLICK BELOW LINK
http://pimp4003.net/torrents.php?id=782083700b371cc5179227c78cdb2e6d92de4ad2
https://www.facebook.com/profile.php?id=100008207739353
When The Game Stands Tall 2014 720p HDCAM FIRST ENG x264 Pimp4003
ENJOY
PIMP4003
Video
ID : 1
Format : MPEG-4 Visual
Format profile : Simple@L3
Format settings, BVOP : No
Format settings, QPel : No
Format settings, GMC : No warppoints
Format settings, Matrix : Default (H.263)
Codec ID : 20
Duration : 1h 49mn
Bit rate : 2 994 Kbps
Width : 1 280 pixels
Height : 536 pixels
Display aspect ratio : 2.40:1
Frame rate mode : Variable
Frame rate : 59.940 fps
Minimum frame rate : 59.916 fps
Maximum frame rate : 60.157 fps
Color space : YUV
Chroma subsampling : 4:2:0
Bit depth : 8 bits
Scan type : Progressive
Compression mode : Lossy
Bits/(Pixel*Frame) : 0.073
Stream size : 2.29 GiB (96%)
Writing library : ZJMedia MPEG Encoder
Audio
ID : 2
Format : AAC
Format/Info : Advanced Audio Codec
Format profile : LC
Codec ID : 40
Duration : 1h 49mn
Bit rate mode : Variable
Bit rate : 128 Kbps
Channel(s) : 2 channels
Channel positions : Front: L R
Sampling rate : 48.0 KHz
Compression mode : Lossy
Stream size : 100 MiB (4%)

Thepiratebay

SOURCE IS SHOP3001...THANKS.....FOR THE FIRST VERSION THIS CAM IS VERY GOOD...VIDEO WAS SHAKY FOR LIKE THE FIRST 30 SECONDS AFTER THAT IT STRAIGHTENS OUT.....HAD TO ADJUST THE CONTRAST AND FIX THE FLICKERING THAT IT HAS HERE AND THERE AND ALSO BRIGHTENED A LITTLE BIT BUT ONLY THE DARK SCENES.....AUDIO WAS A LITTLE HOLLOW FIXED AND SYNCED IT UP WELL............ENJOY.....PIMP4003
download When The Game Stands Tall 2014 720p HDCAM FIRST ENG X264 Pimp403
download When The Game Stands Tall 2014 720p HDCAM FIRST ENG X264 Pimp403
FOR REQUESTS, EXCLUSIVE MOVIES AND SUPER FAST SPEEDS AND FOR SCREENSHOTS AND SAMPLE....CLICK BELOW LINK
When The Game Stands Tall 2014 720p HDCAM FIRST ENG x264 Pimp4003
ENJOY
PIMP4003
Video
ID : 1
Format : MPEG-4 Visual
Format profile : Simple@L3
Format settings, BVOP : No
Format settings, QPel : No
Format settings, GMC : No warppoints
Format settings, Matrix : Default (H.263)
Codec ID : 20
Duration : 1h 49mn
Bit rate : 2 994 Kbps
Width : 1 280 pixels
Height : 536 pixels
Display aspect ratio : 2.40:1
Frame rate mode : Variable
Frame rate : 59.940 fps
Minimum frame rate : 59.916 fps
Maximum frame rate : 60.157 fps
Color space : YUV
Chroma subsampling : 4:2:0
Bit depth : 8 bits
Scan type : Progressive
Compression mode : Lossy
Bits/(Pixel*Frame) : 0.073
Stream size : 2.29 GiB (96%)
Writing library : ZJMedia MPEG Encoder
Audio
ID : 2
Format : AAC
Format/Info : Advanced Audio Codec
Format profile : LC
Codec ID : 40
Duration : 1h 49mn
Bit rate mode : Variable
Bit rate : 128 Kbps
Channel(s) : 2 channels
Channel positions : Front: L R
Sampling rate : 48.0 KHz
Compression mode : Lossy
Stream size : 100 MiB (4%)

Kickasstorrents

SOURCE IS SHOP3001...THANKS.....FOR THE FIRST VERSION THIS CAM IS VERY GOOD...VIDEO WAS SHAKY FOR LIKE THE FIRST 30 SECONDS AFTER THAT IT STRAIGHTENS OUT.....HAD TO ADJUST THE CONTRAST AND FIX THE FLICKERING THAT IT HAS HERE AND THERE AND ALSO BRIGHTENED A LITTLE BIT BUT ONLY THE DARK SCENES.....AUDIO WAS A LITTLE HOLLOW FIXED AND SYNCED IT UP WELL............ENJOY.....PIMP4003
FOR REQUESTS, EXCLUSIVE MOVIES AND SUPER FAST SPEEDS AND FOR SCREENSHOTS AND SAMPLE....CLICK BELOW LINK
http://pimp4003.net/torrents...1cc5179227c78cdb2e6d92de4ad2
https://twitter.com/PIMP4003DOTNET
When The Game Stands Tall 2014 720p HDCAM FIRST ENG x264 Pimp4003
ENJOY
PIMP4003
Video
ID : 1
Format : MPEG-4 Visual
Format profile : Simple@L3
Format settings, BVOP : No
Format settings, QPel : No
Format settings, GMC : No warppoints
Format settings, Matrix : Default (H.263)
Codec ID : 20
Duration : 1h 49mn
Bit rate : 2 994 Kbps
Width : 1 280 pixels
Height : 536 pixels
Display aspect ratio : 2.40:1
Frame rate mode : Variable
Frame rate : 59.940 fps
Minimum frame rate : 59.916 fps
Maximum frame rate : 60.157 fps
Color space : YUV
Chroma subsampling : 4:2:0
Bit depth : 8 bits
Scan type : Progressive
Compression mode : Lossy
Bits/(Pixel*Frame) : 0.073
Stream size : 2.29 GiB (96%)
Writing library : ZJMedia MPEG Encoder
Audio
ID : 2
Format : AAC
Format/Info : Advanced Audio Codec
Format profile : LC
Codec ID : 40
Duration : 1h 49mn
Bit rate mode : Variable
Bit rate : 128 Kbps
Channel(s) : 2 channels
Channel positions : Front: L R
Sampling rate : 48.0 KHz
Compression mode : Lossy
Stream size : 100 MiB (4%)

Torrentdownloadz

SOURCE IS SHOP3001...THANKS.....FOR THE FIRST VERSION THIS CAM IS VERY GOOD...VIDEO WAS SHAKY FOR LIKE THE FIRST 30 SECONDS AFTER THAT IT STRAIGHTENS OUT.....HAD TO ADJUST THE CONTRAST AND FIX THE FLICKERING THAT IT HAS HERE AND THERE AND ALSO BRIGHTENED A LITTLE BIT BUT ONLY THE DARK SCENES.....AUDIO WAS A LITTLE HOLLOW FIXED AND SYNCED IT UP WELL............ENJOY.....PIMP4003 download When The Game Stands Tall 2014 720p HDCAM FIRST ENG X264 Pimp403download When The Game Stands Tall 2014 720p HDCAM FIRST ENG X264 Pimp403 FOR REQUESTS, EXCLUSIVE MOVIES AND SUPER FAST SPEEDS AND FOR SCREENSHOTS AND SAMPLE....CLICK BELOW LINK When The Game Stands Tall 2014 720p HDCAM FIRST ENG x264 Pimp4003 ENJOY PIMP4003 Video ID : 1 Format : MPEG-4 Visual Format profile : Simple@L3 Format settings, BVOP : No Format settings, QPel : No Format settings, GMC : No warppoints Format settings, Matrix : Default (H.263) Codec ID : 20 Duration : 1h 49mn Bit rate : 2 994 Kbps Width : 1 280 pixels Height : 536 pixels Display aspect ratio : 2.40:1 Frame rate mode : Variable Frame rate : 59.940 fps Minimum frame rate : 59.916 fps Maximum frame rate : 60.157 fps Color space : YUV Chroma subsampling : 4:2:0 Bit depth : 8 bits Scan type : Progressive Compression mode : Lossy Bits/(Pixel*Frame) : 0.073 Stream size : 2.29 GiB (96%) Writing library : ZJMedia MPEG Encoder Audio ID : 2 Format : AAC Format/Info : Advanced Audio Codec Format profile : LC Codec ID : 40 Duration : 1h 49mn Bit rate mode : Variable Bit rate : 128 Kbps Channel(s) : 2 channels Channel positions : Front: L R Sampling rate : 48.0 KHz Compression mode : Lossy Stream size : 100 MiB (4%)

Files (3):

  • [WWW.PIMP4003.NET] When The Game Stands Tall 2014 720p HDCAM FIRST ENG x264 Pimp403.mp4 (2.4 GB)
  • Torrent Downloaded From Pimp4003.net.txt (58 B)
  • Torrent downloaded from demonoid.ph.txt (46 B)
Torrof does not host any content on its servers, but allows his users to search existing torrents for "When The Game Stands Tall 2014 720p HDCAM FIRST ENG X264 Pimp403" and download it for free from most famous Torrent Trackers: #Btscene, #Thepiratebay, #Torrentroom, #Sumotorrent, #Kickasstorrents, #Torrentdownloadz, #Bittorrentz, #Limetorrents, #Bitsnoop, #Torrentfunk