X Men Apocalypse 2016 720P Brrip X264 Therival

X-Men Apocalypse 2016 720p BRRip x264-TheRival Video / Sci-Fi

  • 2.4 GB
  • 0 S
  • 4 L
  • Sep 2016

Download fast (14 free days): Download torrent Magnet link

Description(s):

Btscene

Screenshots:
http://extraimago.com/image/wI1G
http://extraimago.com/image/wI1P
http://extraimago.com/image/wI1X
Subtitles:
English, German, Japanese, Japanese, Arabic, Bulgarian, Croatian, Czech, Modern Greek, Hebrew, Hungarian, Icelandic, Polish, Portuguese, Romanian, Serbian, Slovak, Slovenian, Turkish
Video
ID : 1
Format : AVC
Format/Info : Advanced Video Codec
Format profile : High@L3.1
Format settings, CABAC : Yes
Format settings, ReFrames : 4 frames
Codec ID : avc1
Codec ID/Info : Advanced Video Coding
Duration : 2 h 23 min
Bit rate : 2 126 kb/s
Width : 1 280 pixels
Height : 720 pixels
Display aspect ratio : 16:9
Frame rate mode : Constant
Frame rate : 23.976 (24000/1001) FPS
Color space : YUV
Chroma subsampling : 4:2:0
Bit depth : 8 bits
Scan type : Progressive
Bits/(Pixel*Frame) : 0.096
Stream size : 2.14 GiB (94%)
Writing library : x264 core 146
Encoding settings : cabac=1 / ref=1 / deblock=1:0:0 / analyse=0x3:0x3 / me=dia / subme=1 / psy=1 / psy_rd=1.00:0.00 / mixed_ref=0 / me_range=16 / chroma_me=1 / trellis=0 / 8x8dct=1 / cqm=0 / deadzone=21,11 / fast_pskip=1 / chroma_qp_offset=0 / threads=6 / lookahead_threads=1 / sliced_threads=0 / nr=0 / decimate=1 / interlaced=0 / bluray_compat=0 / constrained_intra=0 / bframes=3 / b_pyramid=2 / b_adapt=1 / b_bias=0 / direct=1 / weightb=1 / open_gop=0 / weightp=1 / keyint=250 / keyint_min=23 / scenecut=40 / intra_refresh=0 / rc=crf / mbtree=0 / crf=23.0 / qcomp=0.60 / qpmin=0 / qpmax=69 / qpstep=4 / ip_ratio=1.40 / pb_ratio=1.30 / aq=1:1.00
Audio
ID : 2
Format : AAC
Format/Info : Advanced Audio Codec
Format profile : LC
Codec ID : 40
Duration : 2 h 23 min
Duration_LastFrame : -11 ms
Bit rate mode : Constant
Bit rate : 128 kb/s
Channel(s) : 2 channels
Channel positions : Front: L R
Sampling rate : 48.0 kHz
Frame rate : 46.875 FPS (1024 spf)
Compression mode : Lossy
Stream size : 132 MiB (6%)
Default : Yes
Alternate group : 1

Thepiratebay

Screenshots:
http://extraimago.com/image/wI1G
http://extraimago.com/image/wI1P
http://extraimago.com/image/wI1X
Subtitles:
English, German, Japanese, Japanese, Arabic, Bulgarian, Croatian, Czech, Modern Greek, Hebrew, Hungarian, Icelandic, Polish, Portuguese, Romanian, Serbian, Slovak, Slovenian, Turkish
Video
ID : 1
Format : AVC
Format/Info : Advanced Video Codec
Format profile : /* */
Format settings, CABAC : Yes
Format settings, ReFrames : 4 frames
Codec ID : avc1
Codec ID/Info : Advanced Video Coding
Duration : 2 h 23 min
Bit rate : 2 126 kb/s
Width : 1 280 pixels
Height : 720 pixels
Display aspect ratio : 16:9
Frame rate mode : Constant
Frame rate : 23.976 (24000/1001) FPS
Color space : YUV
Chroma subsampling : 4:2:0
Bit depth : 8 bits
Scan type : Progressive
Bits/(Pixel*Frame) : 0.096
Stream size : 2.14 GiB (94%)
Writing library : x264 core 146
Encoding settings : cabac=1 / ref=1 / deblock=1:0:0 / analyse=0x3:0x3 / me=dia / subme=1 / psy=1 / psy_rd=1.00:0.00 / mixed_ref=0 / me_range=16 / chroma_me=1 / trellis=0 / 8x8dct=1 / cqm=0 / deadzone=21,11 / fast_pskip=1 / chroma_qp_offset=0 / threads=6 / lookahead_threads=1 / sliced_threads=0 / nr=0 / decimate=1 / interlaced=0 / bluray_compat=0 / constrained_intra=0 / bframes=3 / b_pyramid=2 / b_adapt=1 / b_bias=0 / direct=1 / weightb=1 / open_gop=0 / weightp=1 / keyint=250 / keyint_min=23 / scenecut=40 / intra_refresh=0 / rc=crf / mbtree=0 / crf=23.0 / qcomp=0.60 / qpmin=0 / qpmax=69 / qpstep=4 / ip_ratio=1.40 / pb_ratio=1.30 / aq=1:1.00
Audio
ID : 2
Format : AAC
Format/Info : Advanced Audio Codec
Format profile : LC
Codec ID : 40
Duration : 2 h 23 min
Duration_LastFrame : -11 ms
Bit rate mode : Constant
Bit rate : 128 kb/s
Channel(s) : 2 channels
Channel positions : Front: L R
Sampling rate : 48.0 kHz
Frame rate : 46.875 FPS (1024 spf)
Compression mode : Lossy
Stream size : 132 MiB (6%)
Default : Yes
Alternate group : 1

GlodlsTo

Subtitles:
English, German, Japanese, Japanese, Arabic, Bulgarian, Croatian, Czech, Modern Greek, Hebrew, Hungarian,...

Yourbittorrent

X-Men: ApocalypseThe X-Men saga continues in this sequel from 20th Century Fox and director Bryan Singer. ~ Jason Buchanan, Rovi

Files (4):

  • Torrent Downloaded From ExtraTorrent.cc.txt (352 B)
  • X-Men Apocalypse 2016 720p BRRip x264-TheRival.idx (1.1 MB)
  • X-Men Apocalypse 2016 720p BRRip x264-TheRival.sub (128 MB)
  • X-Men Apocalypse 2016 720p BRRip x264-TheRival.mp4 (2.3 GB)
Torrof does not host any content on its servers, but allows his users to search existing torrents for "X-Men Apocalypse 2016 720p BRRip x264-TheRival" and download it for free from most famous Torrent Trackers: #Btscene, #Thepiratebay, #GlodlsTo, #Seedpeer, #Limetorrents, #Yourbittorrent